<?xml version="1.0" standalone="no"?>
<!DOCTYPE svg PUBLIC "-//W3C//DTD SVG 1.1//EN" "http://www.w3.org/Graphics/SVG/1.1/DTD/svg11.dtd" >
<svg xmlns="http://www.w3.org/2000/svg">
<metadata>
Created by FontPrep 20130207 at Sun Mar 19 14:10:18 2017
 By Ahover
</metadata>
<defs>
<font id="090d6763bc81b49309446d23fbd10e87" horiz-adv-x='1024' >
  <font-face 
    font-family="NanumSquareOTFEB00"
    font-weight="700"
    font-stretch="normal"
    units-per-em="2048"
    panose-1="2 0 8 3 0 0 0 0 0 0"
    ascent="1638"
    descent="-410"
    x-height="1075"
    cap-height="1423"
    bbox="-115 -522 2550 1769"
    underline-thickness="102"
    underline-position="-205"
    unicode-range="U+0001-FFE6"
  />
<missing-glyph vert-adv-y="2263" 
d="M1669 -158v1577l-684 -790zM248 1477l682 -787l684 787h-1366zM195 1417v-1573l684 787zM1618 -219l-686 788l-686 -788h1372zM1751 1550v-1843h-1638v1843h1638z" />
    <glyph glyph-name=".notdef" vert-adv-y="2263" 
d="M1669 -158v1577l-684 -790zM248 1477l682 -787l684 787h-1366zM195 1417v-1573l684 787zM1618 -219l-686 788l-686 -788h1372zM1751 1550v-1843h-1638v1843h1638z" />
    <glyph glyph-name=".null" horiz-adv-x="0" vert-adv-y="0" 
 />
    <glyph glyph-name="nonmarkingreturn" horiz-adv-x="681" 
 />
    <glyph glyph-name="Korea1.1" horiz-adv-x="512" vert-adv-y="2263" 
 />
    <glyph glyph-name="Korea1.2" unicode="!" horiz-adv-x="655" vert-adv-y="2263" 
d="M434 317h-213l-39 1205h291zM193 -147v266h270v-266h-270z" />
    <glyph glyph-name="Korea1.3" unicode="&#x22;" horiz-adv-x="821" vert-adv-y="2263" 
d="M705 999h-213l-27 512h266zM330 999h-213l-27 512h266z" />
    <glyph glyph-name="Korea1.4" unicode="#" horiz-adv-x="1316" vert-adv-y="2263" 
d="M760 551l37 278h-252l-39 -278h254zM1151 551v-223h-215l-51 -381h-209l49 381h-246l-49 -381h-211l49 381h-182v223h213l37 278h-186v224h217l49 370h211l-49 -370h245l49 370h209l-49 -370h182v-224h-210l-39 -278h186z" />
    <glyph glyph-name="Korea1.5" unicode="$" horiz-adv-x="1335" vert-adv-y="2263" 
d="M426 1059v-35q0 -86 39 -124t139 -69v375q-178 -20 -178 -147zM948 336v20q0 80 -36 124t-156 79v-395q100 12 146 59t46 113zM604 -190v141q-133 10 -264 54t-207 110l125 190q156 -111 346 -139v430q-237 53 -333 155q-97 103 -97 263v37q0 139 102 244t328 126v117
h152v-115q258 -14 399 -137l-121 -174q-127 88 -278 98v-415q260 -70 354 -163t94 -257v-17q0 -209 -120 -301t-328 -106v-141h-152z" />
    <glyph glyph-name="Korea1.6" unicode="%" horiz-adv-x="1878" vert-adv-y="2263" 
d="M1409 104q82 0 115 46t32 137v71q0 182 -147 183q-147 0 -147 -183v-71q0 -91 32 -137t115 -46zM1409 715q162 0 256 -95t94 -258v-79q0 -162 -94 -257q-94 -96 -256 -96t-256 96t-94 257v79q0 162 94 258t256 95zM469 842q82 0 115 46t32 136v72q0 182 -147 182
t-147 -182v-72q0 -90 32 -136t115 -46zM469 1452q162 0 256 -95t94 -257v-80q0 -162 -94 -257t-256 -95t-256 95t-94 257v80q0 162 94 257t256 95zM616 -51h-237l883 1474h235z" />
    <glyph glyph-name="Korea1.7" unicode="&#x26;" horiz-adv-x="1413" vert-adv-y="2263" 
d="M500 1116v-20q0 -59 131 -207q92 61 124 103t31 100v14q0 51 -38 88q-39 37 -109 37q-71 0 -105 -33t-34 -82zM606 154q162 0 258 94l-307 362q-119 -60 -168 -120t-49 -132v-28q0 -76 72 -126t194 -50zM1053 760h239q0 -319 -114 -510l249 -301h-313l-98 123
q-174 -147 -404 -148h-16q-296 0 -435 168q-79 94 -79 232v38q0 140 86 240t246 176l-49 56q-113 127 -113 266v24q0 142 104 232t288 90t284 -94q102 -94 102 -236v-22q0 -217 -260 -377l242 -277q41 97 41 320z" />
    <glyph glyph-name="Korea1.8" unicode="'" horiz-adv-x="446" vert-adv-y="2263" 
d="M330 999h-213l-27 512h266z" />
    <glyph glyph-name="Korea1.9" unicode="(" horiz-adv-x="739" vert-adv-y="2263" 
d="M389 664v-103q0 -524 281 -909h-246q-301 358 -301 919v82q0 557 301 916h246q-281 -379 -281 -905z" />
    <glyph glyph-name="Korea1.10" unicode=")" horiz-adv-x="739" vert-adv-y="2263" 
d="M350 561v103q0 526 -280 905h245q301 -358 301 -916v-82q0 -561 -301 -919h-245q280 385 280 909z" />
    <glyph glyph-name="Korea1.11" unicode="*" horiz-adv-x="980" vert-adv-y="2263" 
d="M418 973l-230 -170l-104 198l278 101l-278 98l104 199l228 -170l-33 272h217l-35 -272l230 170l102 -199l-279 -98l279 -101l-102 -198l-230 170l35 -271h-217z" />
    <glyph glyph-name="Korea1.12" unicode="+" horiz-adv-x="1228" vert-adv-y="2263" 
d="M500 1176h229v-420h414v-213h-414v-449h-229v449h-414v213h414v420z" />
    <glyph glyph-name="Korea1.13" unicode="," horiz-adv-x="702" vert-adv-y="2263" 
d="M141 -358l86 475h291l-168 -475h-209z" />
    <glyph glyph-name="Korea1.14" unicode="-" horiz-adv-x="876" vert-adv-y="2263" 
d="M90 578v213h696v-213h-696z" />
    <glyph glyph-name="Korea1.15" unicode="." horiz-adv-x="702" vert-adv-y="2263" 
d="M221 -147v266h260v-266h-260z" />
    <glyph glyph-name="Korea1.16" unicode="/" horiz-adv-x="993" vert-adv-y="2263" 
d="M686 1591h254l-635 -1859h-252z" />
    <glyph glyph-name="Korea1.17" unicode="0" horiz-adv-x="1269" vert-adv-y="2263" 
d="M913 569v234q0 245 -80 320t-195 75q-116 0 -199 -77t-83 -318v-234q0 -242 95 -326q80 -71 192 -71q59 0 103 14q167 53 167 383zM1178 801v-230q0 -315 -136 -481t-398 -166q-263 0 -407 169t-145 478v230q0 309 144 477t402 168q260 0 400 -167t140 -478z" />
    <glyph glyph-name="Korea1.18" unicode="1" horiz-adv-x="1269" vert-adv-y="2263" 
d="M954 -53h-262v1181l-336 -192l-127 213l494 274h231v-1476z" />
    <glyph glyph-name="Korea1.19" unicode="2" horiz-adv-x="1269" vert-adv-y="2263" 
d="M829 1057q0 67 -52 111q-51 44 -151 44t-176 -44t-143 -162l-196 129q170 311 505 311q238 0 358 -108t120 -271v-20q0 -231 -213 -445l-435 -438h703v-217h-1045v196l543 559q117 119 150 190t32 148v17z" />
    <glyph glyph-name="Korea1.20" unicode="3" horiz-adv-x="1269" vert-adv-y="2263" 
d="M573 1446q207 0 332 -101t125 -268v-20q0 -103 -49 -199t-164 -139q141 -25 214 -114t73 -220v-31q0 -180 -139 -305t-401 -125t-470 164l129 205q106 -78 181 -107q76 -28 188 -28t180 55t68 154v26q0 109 -64 159t-205 50h-198v225h176q129 1 177 55t48 158v17
q0 160 -201 160q-147 0 -260 -123l-178 139q166 213 438 213z" />
    <glyph glyph-name="Korea1.21" unicode="4" horiz-adv-x="1269" vert-adv-y="2263" 
d="M766 907h258v-442h201v-211h-201v-307h-258v307h-735v170l671 999h283l-645 -958h426v442z" />
    <glyph glyph-name="Korea1.22" unicode="5" horiz-adv-x="1269" vert-adv-y="2263" 
d="M907 418v22q0 117 -68 182q-69 65 -192 64q-160 0 -280 -117h-177l48 854h837v-217h-602l-16 -385q125 76 274 76q205 0 323 -131t117 -320v-30q0 -199 -134 -345t-392 -147q-324 0 -524 164l127 207q98 -78 189 -106q91 -27 214 -27t190 69q66 70 66 187z" />
    <glyph glyph-name="Korea1.23" unicode="6" horiz-adv-x="1269" vert-adv-y="2263" 
d="M383 446v-30q0 -121 67 -188q68 -66 196 -66t198 66t69 190v22q0 130 -63 192q-64 62 -198 62t-202 -70t-67 -178zM688 1208q-127 0 -212 -96t-97 -317q53 61 143 95t189 34q213 0 337 -129t123 -346v-41q0 -212 -142 -348t-382 -136q-528 0 -528 625v94q0 469 174 647
q84 86 183 121t229 35q239 -1 393 -103l-97 -217q-141 82 -313 82z" />
    <glyph glyph-name="Korea1.24" unicode="7" horiz-adv-x="1269" vert-adv-y="2263" 
d="M106 1202v221h1055v-200l-565 -1276h-277l568 1255h-781z" />
    <glyph glyph-name="Korea1.25" unicode="8" horiz-adv-x="1269" vert-adv-y="2263" 
d="M123 338v35q0 117 73 211t169 123q-98 49 -151 138q-52 89 -52 171v24q0 172 121 289t348 117t352 -118t125 -288v-24q0 -80 -50 -166t-151 -143q98 -31 169 -124t71 -210v-35q0 -182 -133 -298t-377 -116t-379 115t-135 299zM393 375v-21q0 -94 67 -147q66 -53 178 -53
t175 53t64 147v21q0 104 -68 157q-68 54 -172 54t-174 -52t-70 -159zM430 1026v-20q0 -92 62 -142t146 -49q83 0 142 49t60 142v20q0 92 -56 142t-147 50t-149 -50t-58 -142z" />
    <glyph glyph-name="Korea1.26" unicode="9" horiz-adv-x="1269" vert-adv-y="2263" 
d="M887 924v30q0 121 -67 188q-68 66 -196 66t-198 -66t-70 -190v-22q0 -130 64 -192t197 -62q134 0 202 70t68 178zM570 162q162 0 236 93t85 320q-53 -61 -143 -95t-189 -34q-213 0 -337 128t-124 346v41q0 211 142 348t383 137q528 0 528 -625v-94q0 -474 -163 -647
q-81 -86 -182 -121t-241 -35q-239 1 -393 103l96 217q140 -82 302 -82z" />
    <glyph glyph-name="Korea1.27" unicode=":" horiz-adv-x="825" vert-adv-y="2263" 
d="M283 924v266h260v-266h-260zM283 2v266h260v-266h-260z" />
    <glyph glyph-name="Korea1.28" unicode=";" horiz-adv-x="825" vert-adv-y="2263" 
d="M203 -195l86 474h291l-168 -474h-209zM283 924v266h260v-266h-260z" />
    <glyph glyph-name="Korea1.29" unicode="&#x3c;" horiz-adv-x="1269" vert-adv-y="2263" 
d="M416 666v-13l704 -350v-260l-991 512v203l991 512v-258z" />
    <glyph glyph-name="Korea1.30" unicode="=" horiz-adv-x="1269" vert-adv-y="2263" 
d="M152 332v215h966v-215h-966zM152 764v215h966v-215h-966z" />
    <glyph glyph-name="Korea1.31" unicode="&#x3e;" horiz-adv-x="1269" vert-adv-y="2263" 
d="M854 653v13l-704 346v258l991 -512v-203l-991 -512v260z" />
    <glyph glyph-name="Korea1.32" unicode="?" horiz-adv-x="1140" vert-adv-y="2263" 
d="M397 -147v266h271v-266h-271zM653 289h-243v90q0 119 26 187t146 178q120 112 155 166t35 137v20q0 70 -54 115t-167 45q-176 0 -320 -137l-143 180q188 188 471 188q221 0 348 -106t127 -277v-28q0 -149 -78 -246q-44 -57 -70 -85t-104 -102t-103 -116q-26 -41 -26 -125
v-84z" />
    <glyph glyph-name="Korea1.33" unicode="@" horiz-adv-x="2054" vert-adv-y="2263" 
d="M821 623v-103q0 -219 189 -219q88 0 143 52t55 145v145q0 209 -198 209q-189 0 -189 -229zM1563 72q-201 0 -250 176h-2q-35 -88 -130 -130t-186 -42q-199 0 -313 114t-113 302v163q0 186 108 301t296 115t252 -106v90h235v-629q0 -88 28 -129t91 -41q88 0 131 81t43 273
v17q0 342 -194 527q-195 185 -549 185q-311 -1 -510 -197t-199 -540v-29q0 -371 200 -567t534 -196t581 129l72 -166q-268 -145 -635 -146q-446 0 -699 254q-252 254 -252 690v33q0 400 248 658t678 258t678 -240q246 -240 246 -647v-21q0 -205 -79 -361q-43 -83 -121 -131
t-189 -48z" />
    <glyph glyph-name="Korea1.34" unicode="A" horiz-adv-x="1413" vert-adv-y="2263" 
d="M627 872l-101 -301h346l-100 301q-45 129 -74 228q-30 -111 -71 -228zM821 1423l555 -1476h-284l-144 405h-497l-146 -405h-268l549 1476h235z" />
    <glyph glyph-name="Korea1.35" unicode="B" horiz-adv-x="1353" vert-adv-y="2263" 
d="M627 1206h-201v-385h192q217 0 269 44q51 44 51 147v37q0 93 -70 125t-241 32zM426 608v-444h238q188 0 264 39t76 162v45q0 114 -83 156t-296 42h-199zM166 -53v1476h573q465 0 465 -360v-43q0 -240 -233 -297q301 -45 301 -336v-51q0 -186 -117 -288t-352 -101h-637z
" />
    <glyph glyph-name="Korea1.36" unicode="C" horiz-adv-x="1347" vert-adv-y="2263" 
d="M729 1446q160 0 279 -38t229 -126l-141 -201q-84 72 -170 98t-197 25q-352 0 -352 -454v-152q0 -222 99 -326t251 -104q258 0 406 154l139 -201q-201 -197 -555 -197q-262 0 -433 155t-171 466v264q0 315 172 476t444 161z" />
    <glyph glyph-name="Korea1.37" unicode="D" horiz-adv-x="1433" vert-adv-y="2263" 
d="M426 1202v-1034h219q207 0 309 98t103 324v190q-1 226 -101 324t-311 98h-219zM166 1423h514q641 0 641 -632v-211q0 -314 -151 -474t-486 -159h-518v1476z" />
    <glyph glyph-name="Korea1.38" unicode="E" horiz-adv-x="1245" vert-adv-y="2263" 
d="M166 1423h950v-217h-690v-397h647v-213h-647v-432h704v-217h-964v1476z" />
    <glyph glyph-name="Korea1.39" unicode="F" horiz-adv-x="1189" vert-adv-y="2263" 
d="M428 -53h-262v1476h950v-221h-688v-422h645v-221h-645v-612z" />
    <glyph glyph-name="Korea1.40" unicode="G" horiz-adv-x="1404" vert-adv-y="2263" 
d="M768 1446q299 0 504 -166l-142 -201q-144 129 -348 129t-306 -98t-101 -360v-152q0 -436 409 -436q131 0 242 43v354h-309v219h569v-719q-94 -63 -235 -99t-279 -36q-299 0 -479 153t-180 468v264q0 319 178 478t477 159z" />
    <glyph glyph-name="Korea1.41" unicode="H" horiz-adv-x="1468" vert-adv-y="2263" 
d="M1040 -53v661h-612v-661h-262v1476h262v-598h612v598h263v-1476h-263z" />
    <glyph glyph-name="Korea1.42" unicode="I" horiz-adv-x="593" vert-adv-y="2263" 
d="M166 -53v1476h262v-1476h-262z" />
    <glyph glyph-name="Korea1.43" unicode="J" horiz-adv-x="1005" vert-adv-y="2263" 
d="M580 430v993h262v-1056q0 -236 -119 -339q-119 -104 -335 -104t-363 129l120 201q66 -50 117 -70t136 -20q86 0 134 60t48 206z" />
    <glyph glyph-name="Korea1.44" unicode="K" horiz-adv-x="1363" vert-adv-y="2263" 
d="M428 -53h-262v1476h262v-675l582 675h303l-572 -651l602 -825h-331l-447 635l-137 -150v-485z" />
    <glyph glyph-name="Korea1.45" unicode="L" horiz-adv-x="1142" vert-adv-y="2263" 
d="M166 1423h262v-1255h674v-221h-936v1476z" />
    <glyph glyph-name="Korea1.46" unicode="M" horiz-adv-x="1792" vert-adv-y="2263" 
d="M410 -53h-244v1476h373l362 -917l348 917h377v-1476h-248v1247q-20 -80 -69 -223l-310 -778h-208l-306 778q-14 39 -75 223v-1247z" />
    <glyph glyph-name="Korea1.47" unicode="N" horiz-adv-x="1476" vert-adv-y="2263" 
d="M166 -53v1476h301l504 -895q68 -123 94 -233v1128h246v-1476h-301l-506 897q-70 123 -92 227v-1124h-246z" />
    <glyph glyph-name="Korea1.48" unicode="O" horiz-adv-x="1474" vert-adv-y="2263" 
d="M737 164q168 0 264 97t97 335v178q0 238 -96 335t-265 97q-360 0 -360 -432v-178q0 -432 360 -432zM301 1298q176 148 438 148t436 -148q87 -74 137 -200t50 -291v-244q0 -327 -174 -483t-450 -156t-451 156q-174 156 -174 483v244q0 166 50 292t138 199z" />
    <glyph glyph-name="Korea1.49" unicode="P" horiz-adv-x="1302" vert-adv-y="2263" 
d="M711 1204h-283v-469h260q137 0 207 52t70 176v36q1 115 -65 160t-189 45zM166 -53v1476h557q254 -1 380 -115t126 -307v-43q0 -190 -131 -317t-375 -127h-295v-567h-262z" />
    <glyph glyph-name="Korea1.50" unicode="Q" horiz-adv-x="1462" vert-adv-y="2263" 
d="M737 164q78 0 133 16l-174 174l150 154l192 -193q59 106 60 281v178q0 238 -96 335t-265 97q-360 0 -360 -432v-178q0 -432 360 -432zM301 1298q176 148 438 148t436 -148q87 -74 137 -200t50 -291v-244q0 -274 -131 -438l170 -168l-150 -154l-190 189q-135 -68 -324 -68
q-276 0 -450 156t-174 483v244q0 166 50 292t138 199z" />
    <glyph glyph-name="Korea1.51" unicode="R" horiz-adv-x="1351" vert-adv-y="2263" 
d="M692 1204h-264v-446h242q272 0 272 190v62q0 194 -250 194zM428 539v-592h-262v1476h559q225 1 351 -111t126 -294v-76q0 -117 -59 -211t-170 -143q49 -106 144 -320t145 -321h-285l-248 592h-301z" />
    <glyph glyph-name="Korea1.52" unicode="S" horiz-adv-x="1282" vert-adv-y="2263" 
d="M643 160q133 0 201 48t67 128v22q0 86 -63 132q-62 46 -244 85t-264 78q-211 100 -211 351v26q0 149 114 275q58 63 166 102t248 39q270 0 461 -123l-123 -203q-141 92 -333 92q-129 0 -201 -55t-72 -123v-24q0 -69 44 -109q44 -39 110 -55q151 -36 166 -39
q252 -55 358 -159t107 -265v-27q0 -237 -157 -335q-157 -97 -386 -97q-154 0 -296 48t-233 122l127 209q170 -143 414 -143z" />
    <glyph glyph-name="Korea1.53" unicode="T" horiz-adv-x="1169" vert-adv-y="2263" 
d="M20 1423h1129v-221h-432v-1255h-262v1255h-435v221z" />
    <glyph glyph-name="Korea1.54" unicode="U" horiz-adv-x="1425" vert-adv-y="2263" 
d="M713 162q163 0 237 88t74 301v872h262v-868q0 -348 -140 -489q-140 -142 -432 -142t-433 142t-142 489v868h262v-872q0 -213 74 -301t238 -88z" />
    <glyph glyph-name="Korea1.55" unicode="V" horiz-adv-x="1447" vert-adv-y="2263" 
d="M600 -53l-543 1476h281l387 -1155l401 1155h267l-557 -1476h-236z" />
    <glyph glyph-name="Korea1.56" unicode="W" horiz-adv-x="2031" vert-adv-y="2263" 
d="M457 -53l-402 1476h273l270 -1095l299 1095h252l297 -1093l280 1093h252l-407 -1476h-250l-299 1136l-311 -1136h-254z" />
    <glyph glyph-name="Korea1.57" unicode="X" horiz-adv-x="1370" vert-adv-y="2263" 
d="M1298 1423l-440 -718l459 -758h-303l-338 596l-328 -596h-295l457 772l-420 704h316l294 -544l306 544h292z" />
    <glyph glyph-name="Korea1.58" unicode="Y" horiz-adv-x="1327" vert-adv-y="2263" 
d="M795 -53h-263v583l-505 893h292l351 -651l344 651h286l-505 -893v-583z" />
    <glyph glyph-name="Korea1.59" unicode="Z" horiz-adv-x="1288" vert-adv-y="2263" 
d="M1184 1423v-198l-809 -1053h848v-225h-1172v215l799 1036h-750v225h1084z" />
    <glyph glyph-name="Korea1.60" unicode="[" horiz-adv-x="864" vert-adv-y="2263" 
d="M778 -123v-225h-600v1917h600v-226h-336v-1466h336z" />
    <glyph glyph-name="Korea1.61" unicode="\" horiz-adv-x="1970" vert-adv-y="2263" 
d="M1006 1085l-70 -270h127zM1298 670l78 -336l60 336h-138zM551 670l65 -324l86 324h-151zM66 670v145h217l-152 608h260l131 -608h215l160 608h227l144 -608h196l123 608h256l-149 -608h211v-145h-246l-172 -723h-225l-166 723h-197l-182 -723h-217l-181 723h-253z" />
    <glyph glyph-name="Korea1.62" unicode="]" horiz-adv-x="864" vert-adv-y="2263" 
d="M86 -348v225h336v1466h-336v226h600v-1917h-600z" />
    <glyph glyph-name="Korea1.63" unicode="^" horiz-adv-x="1073" vert-adv-y="2263" 
d="M987 821h-242l-208 459l-209 -459h-242l332 662h239z" />
    <glyph glyph-name="Korea1.64" unicode="_" horiz-adv-x="1064" vert-adv-y="2263" 
d="M1065 -154v-153h-1065v153h1065z" />
    <glyph glyph-name="Korea1.65" unicode="`" horiz-adv-x="1269" vert-adv-y="2263" 
d="M901 1151h-233l-303 317h305z" />
    <glyph glyph-name="Korea1.66" unicode="a" horiz-adv-x="1173" vert-adv-y="2263" 
d="M780 401v31h-252q-182 0 -182 -143v-25q0 -117 156 -117t231 76q33 31 40 67t7 111zM479 -70q-180 0 -281 83t-102 233v65q0 322 426 322h258v43q0 104 -48 150t-152 46q-176 0 -320 -112l-127 188q217 152 435 152t342 -96q126 -96 126 -265v-792h-231l-4 139
q-31 -72 -127 -114t-195 -42z" />
    <glyph glyph-name="Korea1.67" unicode="b" horiz-adv-x="1255" vert-adv-y="2263" 
d="M905 449v129q0 301 -235 301q-125 0 -194 -74t-68 -193v-239q0 -82 78 -153q78 -70 189 -70q112 0 171 78t59 221zM399 78v-131h-245v1548h258v-530q49 71 137 103t172 32q213 0 327 -128t113 -354v-198q0 -226 -123 -358q-124 -132 -334 -132t-298 148h-7z" />
    <glyph glyph-name="Korea1.68" unicode="c" horiz-adv-x="1079" vert-adv-y="2263" 
d="M604 1100q238 0 412 -133l-125 -189q-121 96 -287 96q-106 0 -178 -70t-72 -214v-137q0 -156 76 -226t178 -69q178 0 307 96l123 -188q-63 -56 -176 -96t-256 -40q-246 0 -379 138t-133 381v141q0 240 136 375t374 135z" />
    <glyph glyph-name="Korea1.69" unicode="d" horiz-adv-x="1253" vert-adv-y="2263" 
d="M348 578v-127q0 -143 60 -223t176 -78q118 0 190 78t72 198v229q0 88 -67 156t-191 68q-240 0 -240 -301zM856 -53v133h-6q-82 -150 -310 -150t-336 125q-110 125 -110 357v198q0 226 122 358t334 132t292 -121v516h258v-1548h-244z" />
    <glyph glyph-name="Korea1.70" unicode="e" horiz-adv-x="1191" vert-adv-y="2263" 
d="M610 -70q-206 0 -354 111q-76 57 -119 163t-43 253v116q0 263 142 395t369 132q225 0 361 -128t136 -368v-186h-756q0 -272 279 -273q184 1 342 93l106 -187q-178 -121 -463 -121zM346 612h508v50q0 98 -61 161t-187 63t-192 -65q-68 -66 -68 -166v-43z" />
    <glyph glyph-name="Korea1.71" unicode="f" horiz-adv-x="831" vert-adv-y="2263" 
d="M227 -53v917h-180v211h180v78q0 172 92 263t277 91q119 0 213 -32l-41 -207q-61 20 -147 20q-135 0 -136 -141v-72h285v-211h-285v-917h-258z" />
    <glyph glyph-name="Korea1.72" unicode="g" horiz-adv-x="1253" vert-adv-y="2263" 
d="M348 578v-107q0 -143 60 -222t176 -79q118 0 190 79t72 197v209q0 88 -67 156t-191 68q-240 0 -240 -301zM846 -41v139h-4q-80 -147 -304 -147t-334 125t-110 356v178q0 226 123 358t328 132q119 0 195 -38t110 -85h2v98h248v-1118q0 -235 -131 -351t-406 -116
q-105 0 -211 34t-176 89l117 201q39 -33 120 -65t154 -32q279 0 279 242z" />
    <glyph glyph-name="Korea1.73" unicode="h" horiz-adv-x="1271" vert-adv-y="2263" 
d="M735 1100q168 0 281 -102t112 -316v-735h-258v680q0 248 -215 247q-78 0 -151 -46q-41 -26 -67 -80t-25 -134v-667h-258v1548h243v-549h4q109 154 334 154z" />
    <glyph glyph-name="Korea1.74" unicode="i" horiz-adv-x="577" vert-adv-y="2263" 
d="M154 1241v279h270v-279h-270zM160 -53v1128h258v-1128h-258z" />
    <glyph glyph-name="Korea1.75" unicode="j" horiz-adv-x="626" vert-adv-y="2263" 
d="M467 1075v-1231q0 -354 -358 -354q-135 0 -224 31l41 209q74 -20 147 -20t105 32q32 33 31 113v1220h258zM203 1241v279h270v-279h-270z" />
    <glyph glyph-name="Korea1.76" unicode="k" horiz-adv-x="1196" vert-adv-y="2263" 
d="M412 -53h-258v1548h258v-897l422 477h325l-438 -467l457 -661h-330l-307 479l-129 -143v-336z" />
    <glyph glyph-name="Korea1.77" unicode="l" horiz-adv-x="565" vert-adv-y="2263" 
d="M154 -53v1548h258v-1548h-258z" />
    <glyph glyph-name="Korea1.78" unicode="m" horiz-adv-x="1894" vert-adv-y="2263" 
d="M1362 1100q166 0 278 -112t111 -314v-727h-258v674q0 250 -205 249q-88 0 -147 -56t-60 -185v-682h-258v678q0 246 -205 245q-94 0 -150 -59t-56 -172v-692h-258v1128h243v-143h4q90 168 310 168q104 0 187 -47t114 -125q61 88 144 130t206 42z" />
    <glyph glyph-name="Korea1.79" unicode="n" horiz-adv-x="1271" vert-adv-y="2263" 
d="M735 1100q168 0 281 -102t112 -316v-735h-258v680q0 248 -215 247q-78 0 -151 -46q-41 -26 -67 -80t-25 -134v-667h-258v1128h243v-129h4q109 154 334 154z" />
    <glyph glyph-name="Korea1.80" unicode="o" horiz-adv-x="1245" vert-adv-y="2263" 
d="M623 -70q-242 0 -385 138t-144 381v133q0 246 142 382t387 136q244 0 386 -136t142 -382v-133q0 -243 -143 -381t-385 -138zM623 156q123 0 195 72t73 225v125q0 297 -268 296q-268 0 -269 -296v-125q0 -153 73 -225t196 -72z" />
    <glyph glyph-name="Korea1.81" unicode="p" horiz-adv-x="1255" vert-adv-y="2263" 
d="M905 449v129q0 301 -235 301q-125 0 -194 -74t-68 -193v-239q0 -82 78 -153q78 -70 189 -70q112 0 171 78t59 221zM1161 420q-1 -226 -123 -358t-325 -132t-301 131v-553h-258v1567h247v-123q99 148 317 148t331 -129t112 -353v-198z" />
    <glyph glyph-name="Korea1.82" unicode="q" horiz-adv-x="1253" vert-adv-y="2263" 
d="M348 578v-127q0 -143 60 -223t176 -78q118 0 190 78t72 198v229q0 88 -67 156t-191 68q-240 0 -240 -301zM846 -492v570h-6q-80 -148 -304 -148t-332 125q-110 125 -110 357v198q0 226 122 358t331 132t299 -121h4v96h250v-1567h-254z" />
    <glyph glyph-name="Korea1.83" unicode="r" horiz-adv-x="905" vert-adv-y="2263" 
d="M412 -53h-258v1128h247v-164h5q100 188 315 189q97 0 160 -23l-74 -233q-59 24 -155 24t-169 -72q-72 -72 -71 -180v-669z" />
    <glyph glyph-name="Korea1.84" unicode="s" horiz-adv-x="1050" vert-adv-y="2263" 
d="M532 150q186 0 187 112v12q0 59 -40 83q-41 24 -223 60q-182 37 -269 113t-87 234v20q0 128 109 222t351 94t392 -103l-110 -186q-106 72 -273 72q-211 0 -211 -101v-12q0 -57 37 -79q37 -23 220 -59t275 -108t91 -243v-23q0 -137 -121 -232t-328 -96q-303 0 -475 140
l115 196q174 -116 360 -116z" />
    <glyph glyph-name="Korea1.85" unicode="t" horiz-adv-x="845" vert-adv-y="2263" 
d="M225 266v596h-180v213h180v289h258v-289h285v-213h-285v-594q0 -68 28 -92q27 -24 95 -24t148 32l41 -207q-109 -47 -232 -47q-184 0 -261 84t-77 252z" />
    <glyph glyph-name="Korea1.86" unicode="u" horiz-adv-x="1265" vert-adv-y="2263" 
d="M535 -72q-180 0 -286 108q-105 108 -106 310v729h258v-674q1 -137 57 -192t153 -55t170 63t73 201v657h258v-1128h-246v135h-4q-45 -76 -136 -115t-191 -39z" />
    <glyph glyph-name="Korea1.87" unicode="v" horiz-adv-x="1097" vert-adv-y="2263" 
d="M717 -53h-336l-369 1128h283l256 -887h8l258 887h268z" />
    <glyph glyph-name="Korea1.88" unicode="w" horiz-adv-x="1609" vert-adv-y="2263" 
d="M616 -53h-301l-280 1128h276l166 -874h8l205 874h244l194 -874h9l180 874h258l-279 -1128h-301l-184 794h-8z" />
    <glyph glyph-name="Korea1.89" unicode="x" horiz-adv-x="1120" vert-adv-y="2263" 
d="M1073 1075l-346 -543l356 -585h-307l-223 411l-225 -411h-291l364 585l-350 543h309l211 -377l217 377h285z" />
    <glyph glyph-name="Korea1.90" unicode="y" horiz-adv-x="1144" vert-adv-y="2263" 
d="M31 1075h286l256 -833h9l258 833h274l-586 -1597l-241 84l145 370z" />
    <glyph glyph-name="Korea1.91" unicode="z" horiz-adv-x="1019" vert-adv-y="2263" 
d="M938 1075v-205l-553 -698h586v-225h-926v176l578 727h-537v225h852z" />
    <glyph glyph-name="Korea1.92" unicode="{" horiz-adv-x="980" vert-adv-y="2263" 
d="M289 895v365q0 147 92 228t252 81h248v-228h-201q-84 1 -106 -37t-21 -151v-272q0 -86 -41 -158t-139 -94q96 -20 138 -91t42 -161v-326q1 -106 23 -139t104 -33h201v-227h-248q-162 0 -253 74t-91 219v415q0 88 -51 124t-166 38v215q115 2 166 37t51 121z" />
    <glyph glyph-name="Korea1.93" unicode="|" horiz-adv-x="628" vert-adv-y="2263" 
d="M444 1567v-1915h-260v1915h260z" />
    <glyph glyph-name="Korea1.94" unicode="}" horiz-adv-x="980" vert-adv-y="2263" 
d="M678 360v-415q0 -145 -91 -219t-253 -74h-248v227h201q83 0 105 33t22 139v326q0 90 42 161t138 91q-98 23 -139 95t-41 157v272q0 113 -22 151t-105 37h-201v228h248q160 0 252 -81t92 -228v-365q0 -86 51 -121t166 -37v-215q-115 -2 -166 -38t-51 -124z" />
    <glyph glyph-name="Korea1.95" unicode="~" horiz-adv-x="1228" vert-adv-y="2263" 
d="M805 455q-82 0 -150 46q-69 46 -121 92t-100 46q-92 0 -110 -190h-213q6 175 95 293t222 118q68 0 126 -29t93 -63q93 -91 154 -92q92 0 112 190h213q-8 -199 -97 -305t-224 -106z" />
    <glyph glyph-name="Korea1.208" unicode="&#xa1;" horiz-adv-x="655" vert-adv-y="2263" 
d="M221 1065h213l39 -1229h-291zM193 1274v270h270v-270h-270z" />
    <glyph glyph-name="Korea1.143" unicode="&#xa2;" horiz-adv-x="1064" vert-adv-y="2263" 
d="M322 745v-106q0 -141 68 -210t155 -77v666q-91 -8 -157 -73t-66 -200zM545 -53v184q-227 8 -352 141t-125 363v110q0 225 128 355t349 139v184h112v-186q107 -10 177 -43t147 -90l-121 -182q-102 78 -203 94v-660q123 16 224 90l127 -180q-117 -111 -351 -133v-186h-112z
" />
    <glyph glyph-name="Korea1.144" unicode="&#xa3;" horiz-adv-x="1048" vert-adv-y="2263" 
d="M90 600v172h111v172q0 250 147 389q146 139 372 139t331 -77l-82 -217q-90 55 -216 55t-208 -69t-82 -222v-170h426v-172h-426v-86q1 -143 -17 -210t-77 -132v-4h665v-221h-1007v174q92 55 133 141t41 236v102h-111z" />
    <glyph glyph-name="Korea1.214" unicode="&#xa4;" vert-adv-y="2263" 
d="M1382 623q0 193 -136 329t-328 135q-192 0 -329 -136q-136 -137 -136 -329t136 -328t329 -136q192 0 328 136t136 329zM1581 616q0 -194 -111 -364l265 -234l-129 -145l-265 240q-182 -156 -417 -156t-412 137l-254 -221l-131 145l250 220q-123 180 -123 379t102 362
l-233 209l141 137l221 -197q189 158 435 158t442 -172l237 211l142 -137l-252 -221q92 -157 92 -351z" />
    <glyph glyph-name="Korea1.145" unicode="&#xa5;" horiz-adv-x="1142" vert-adv-y="2263" 
d="M451 -53v270h-330v189h330v69h-330v193h289l-400 741h262l308 -610h2l315 610h240l-410 -741h295v-193h-334v-69h334v-189h-334v-270h-237z" />
    <glyph glyph-name="Korea1.155" unicode="&#xa7;" horiz-adv-x="1132" vert-adv-y="2263" 
d="M1014 19q0 -175 -125 -273t-369 -98t-391 86v215q120 -49 199 -64q80 -14 157 -14q231 0 232 141q0 66 -32 97t-132 59l-166 45q-166 43 -255 123t-89 235q0 209 199 279q-102 98 -102 268t118 267q119 97 338 97t358 -73v-213q-147 66 -321 66q-211 0 -211 -132
q0 -63 29 -93t112 -58l176 -47q185 -49 271 -126t86 -233q0 -221 -193 -286q111 -94 111 -268zM317 606q0 -68 37 -104t138 -66l139 -41l24 -8q158 31 158 148q1 67 -37 103t-149 69l-138 41l-18 4q-154 -20 -154 -146z" />
    <glyph glyph-name="Korea1.107" unicode="&#xa8;" horiz-adv-x="856" vert-adv-y="2263" 
d="M514 1190v229h225v-229h-225zM117 1190v229h225v-229h-225z" />
    <glyph glyph-name="Korea1.98" unicode="&#xa9;" horiz-adv-x="1654" vert-adv-y="2263" 
d="M492 741q0 179 101 277t279 98t312 -104l-103 -156q-89 72 -187 72q-184 0 -185 -187v-106q0 -93 46 -145t122 -52q135 0 227 72l96 -158q-118 -102 -316 -102t-295 101t-97 282v108zM1612 688q0 -322 -208 -538q-208 -218 -544 -218t-544 218t-208 538t207 536t545 216
t545 -215t207 -537zM246 688q0 -278 172 -456t442 -177q270 0 443 176q172 176 172 457q-1 281 -175 455t-442 174t-440 -175q-172 -176 -172 -454z" />
    <glyph glyph-name="Korea1.668" unicode="&#xaa;" horiz-adv-x="964" vert-adv-y="2263" 
d="M633 924v34h-191q-123 0 -123 -94v-22q0 -80 108 -80t157 38t49 124zM406 571q-150 -1 -229 63t-79 181v57q0 274 342 275h193v18q0 76 -33 108q-34 32 -136 32t-226 -91l-113 168q180 119 353 119q172 0 276 -76t104 -217v-626h-215v100q-30 -111 -237 -111z" />
    <glyph glyph-name="Korea1.176" unicode="&#xab;" vert-adv-y="2263" 
d="M354 618l895 -585l-73 -111l-983 651v93l968 671l76 -108zM780 621l891 -582l-65 -109l-988 643v93l971 665l80 -104z" />
    <glyph glyph-name="Korea1.194" unicode="&#xac;" vert-adv-y="2263" 
d="M1804 336v-649h-133v516h-1616v133h1749z" />
    <glyph glyph-name="Korea1.109" unicode="&#xad;" horiz-adv-x="897" vert-adv-y="2263" 
d="M897 731v-168h-897v168h897z" />
    <glyph glyph-name="Korea1.138" unicode="&#xb0;" horiz-adv-x="659" vert-adv-y="2263" 
d="M453 1247q0 53 -34 90t-89 37t-89 -37t-34 -90t34 -90t89 -37t89 37t34 90zM600 1247q0 -113 -75 -191t-195 -79q-120 0 -196 79q-75 80 -75 192t75 191t196 79q122 0 196 -79t74 -192z" />
    <glyph glyph-name="Korea1.130" unicode="&#xb1;" horiz-adv-x="1269" vert-adv-y="2263" 
d="M104 31v217h1061v-217h-1061zM518 1335h234v-385h413v-217h-413v-389h-234v389h-414v217h414v385z" />
    <glyph glyph-name="Korea1.843" unicode="&#xb2;" horiz-adv-x="819" vert-adv-y="2263" 
d="M496 1249v4q0 80 -100 80t-169 -102l-174 115q121 193 344 192q156 0 242 -77t86 -195v-11q0 -131 -184 -319l-162 -164h383v-190h-696v141l305 321q80 86 102 124q23 38 23 81z" />
    <glyph glyph-name="Korea1.844" unicode="&#xb3;" horiz-adv-x="819" vert-adv-y="2263" 
d="M383 1538q152 0 240 -66t88 -180v-18q0 -143 -121 -199q80 -14 125 -67t45 -125v-31q0 -129 -89 -208t-284 -79t-338 115l107 170q117 -90 229 -90q72 0 107 28t34 72v17q0 98 -161 98h-119v186h119q119 0 118 94v11q0 84 -112 84q-91 0 -152 -80l-149 116
q98 152 313 152z" />
    <glyph glyph-name="Korea1.199" unicode="&#xb4;" horiz-adv-x="1269" vert-adv-y="2263" 
d="M598 1151h-233l231 317h305z" />
    <glyph glyph-name="Korea1.244" unicode="&#xb6;" horiz-adv-x="1206" vert-adv-y="2263" 
d="M563 -270v968h-80q-190 0 -314 104t-124 282q0 179 119 288t366 109h555v-1751h-178v1585h-168v-1585h-176z" />
    <glyph glyph-name="Korea1.104" unicode="&#xb7;" horiz-adv-x="862" vert-adv-y="2263" 
d="M299 487v263h264v-263h-264z" />
    <glyph glyph-name="Korea1.206" unicode="&#xb8;" horiz-adv-x="1269" vert-adv-y="2263" 
d="M643 -199q0 61 -160 62v219h140v-107q205 -16 204 -161q0 -100 -88 -156t-301 -74v131q205 16 205 86z" />
    <glyph glyph-name="Korea1.842" unicode="&#xb9;" horiz-adv-x="819" vert-adv-y="2263" 
d="M598 582h-231v684l-205 -123l-113 188l352 189h197v-938z" />
    <glyph glyph-name="Korea1.675" unicode="&#xba;" horiz-adv-x="1021" vert-adv-y="2263" 
d="M309 993q0 -223 201 -223t201 223v78q0 223 -201 223t-201 -223v-78zM512 1497q196 -1 312 -109t116 -298v-115q0 -195 -116 -301t-312 -106t-314 107q-116 108 -116 300v115q0 193 116 300t314 107z" />
    <glyph glyph-name="Korea1.177" unicode="&#xbb;" vert-adv-y="2263" 
d="M1249 666v-93l-987 -643l-69 109l890 577l-884 611l80 104zM1671 666v-93l-983 -651l-70 111l891 585l-882 611l80 108z" />
    <glyph glyph-name="Korea1.751" unicode="&#xbc;" horiz-adv-x="1810" vert-adv-y="2263" 
d="M1479 182v336l-209 -336h209zM598 485h-231v684l-205 -122l-113 188l352 188h197v-938zM326 -135l1071 1587h211l-1071 -1587h-211zM1698 528v-346h110v-182h-110v-170h-219v170h-465v147l387 621h233l-149 -240h213z" />
    <glyph glyph-name="Korea1.748" unicode="&#xbd;" horiz-adv-x="1914" vert-adv-y="2263" 
d="M1591 502q0 80 -100 80t-168 -103l-174 115q121 193 344 192q156 0 242 -76t86 -196v-10q0 -131 -185 -320l-161 -164h383v-190h-697v141l305 322q80 86 103 124t22 81v4zM598 485h-231v684l-205 -122l-113 188l352 188h197v-938zM326 -135l1071 1587h211l-1071 -1587
h-211z" />
    <glyph glyph-name="Korea1.752" unicode="&#xbe;" horiz-adv-x="1841" vert-adv-y="2263" 
d="M1509 182v336l-209 -336h209zM356 -135l1071 1587h211l-1071 -1587h-211zM383 1442q152 0 240 -66t88 -180v-18q0 -143 -121 -199q80 -13 125 -67t45 -126v-30q0 -129 -89 -208t-284 -79t-338 115l107 170q117 -90 229 -90q72 0 107 28t34 72v16q0 98 -161 99h-119v186
h119q119 0 118 94v10q0 84 -112 84q-91 1 -152 -79l-149 116q98 152 313 152zM1729 528v-346h110v-182h-110v-170h-220v170h-465v147l388 621h233l-149 -240h213z" />
    <glyph glyph-name="Korea1.209" unicode="&#xbf;" horiz-adv-x="1155" vert-adv-y="2263" 
d="M731 1446v-270h-270v270h270zM461 993h278v-92q1 -104 -33 -172t-168 -203t-158 -171t-24 -119v-21q0 -59 47 -104t162 -45q178 0 324 139l153 -189q-100 -100 -212 -140t-261 -40q-221 0 -348 104t-127 273v23q0 106 31 161t41 77t54 68t53 54q129 115 158 174
q30 59 30 137v86z" />
    <glyph glyph-name="Korea1.666" unicode="&#xc6;" horiz-adv-x="1972" vert-adv-y="2263" 
d="M977 580v542q-33 -100 -121 -243l-182 -299h303zM1892 1423v-217h-655v-397h612v-213h-612v-432h670v-217h-930v409h-438l-250 -409h-293l917 1476h979z" />
    <glyph glyph-name="Korea1.667" unicode="&#xd0;" horiz-adv-x="1466" vert-adv-y="2263" 
d="M459 1202v-409h430v-166h-430v-459h219q207 0 309 98t103 324v190q0 226 -100 324t-312 98h-219zM25 627v166h174v630h514q641 0 641 -632v-211q0 -314 -151 -474t-486 -159h-518v680h-174z" />
    <glyph glyph-name="Korea1.131" unicode="&#xd7;" horiz-adv-x="1269" vert-adv-y="2263" 
d="M111 242l378 403l-378 399l135 132l377 -400l381 406l129 -125l-379 -408l379 -403l-134 -129l-381 403l-378 -403z" />
    <glyph glyph-name="Korea1.673" unicode="&#xd8;" horiz-adv-x="1679" vert-adv-y="2263" 
d="M817 164q166 0 262 97t97 335v178q0 111 -21 180l-594 -700q90 -90 256 -90zM815 1206q-360 0 -360 -432v-178q0 -82 20 -193l600 711q-84 92 -260 92zM190 807q0 166 51 292q90 227 336 310q110 37 238 37q266 0 426 -139l119 143l129 -102l-141 -168q92 -143 92 -373
v-244q0 -327 -174 -483t-444 -156t-427 129l-110 -129l-129 103l129 151q-94 154 -95 385v244z" />
    <glyph glyph-name="Korea1.676" unicode="&#xde;" horiz-adv-x="1302" vert-adv-y="2263" 
d="M711 938h-283v-483h260q279 0 279 241v37q1 101 -59 153t-197 52zM166 -53v1476h262v-262h295q254 0 380 -117t126 -309v-43q0 -201 -132 -331t-374 -130h-295v-284h-262z" />
    <glyph glyph-name="Korea1.768" unicode="&#xdf;" horiz-adv-x="1159" vert-adv-y="2263" 
d="M743 758v-13q0 -51 37 -85t125 -74q147 -68 197 -146t51 -184v-10q0 -127 -100 -221q-99 -95 -283 -95t-336 111l123 192q109 -88 225 -88t117 105v4q0 55 -19 84t-89 61q-297 141 -297 342v19q0 112 104 206q43 38 86 72q106 85 104 168v6q0 82 -155 82q-105 0 -163 -61
t-58 -209v-1077h-258v1145q0 200 135 308t345 108t312 -86q102 -85 103 -203v-21q-1 -82 -49 -152t-104 -109q-153 -109 -153 -179z" />
    <glyph glyph-name="Korea1.757" unicode="&#xe6;" horiz-adv-x="1804" vert-adv-y="2263" 
d="M997 631h500v49q0 88 -67 147q-68 59 -183 59t-183 -53q-68 -54 -67 -151v-51zM743 371v35h-239q-106 0 -142 -22t-36 -75v-35q0 -121 145 -120q125 0 186 43q86 57 86 174zM1262 -70q-274 0 -402 172q-131 -172 -409 -172q-180 0 -278 83q-97 83 -97 233v76
q0 158 92 230t311 73h264v59q0 109 -40 151t-140 42t-168 -27t-153 -86l-129 188q217 152 442 152t346 -125q125 125 349 125t358 -130t135 -372v-178h-746q-2 -131 75 -202q78 -70 190 -70t185 20t161 72l106 -193q-178 -121 -452 -121z" />
    <glyph glyph-name="Korea1.759" unicode="&#xf0;" horiz-adv-x="1273" vert-adv-y="2263" 
d="M623 156q121 0 195 81t75 236v53q0 178 -69 250q-70 72 -194 72t-201 -81t-77 -237v-57q0 -157 75 -237t196 -80zM1153 545v-96q0 -244 -143 -381q-143 -138 -387 -138t-387 138t-144 381v106q0 246 137 382t369 136q109 0 152 -10q-51 80 -134 151l-303 -127l-59 138
l217 90q-55 37 -145 82l82 145q147 -70 254 -147l249 106l60 -139l-168 -70q350 -299 350 -747z" />
    <glyph glyph-name="Korea1.132" unicode="&#xf7;" horiz-adv-x="1269" vert-adv-y="2263" 
d="M516 129v229h234v-229h-234zM516 940v229h234v-229h-234zM106 756h1057v-213h-1057v213z" />
    <glyph glyph-name="Korea1.766" unicode="&#xf8;" horiz-adv-x="1282" vert-adv-y="2263" 
d="M650 156q114 0 187 72t72 225v125q0 61 -12 106l-422 -483q61 -45 175 -45zM373 453q0 -94 26 -154l439 504q-70 72 -197 71q-268 0 -268 -296v-125zM641 -70q-195 0 -326 88l-90 -102l-94 80l92 104q-111 133 -110 349v133q0 246 142 382q141 136 373 136t369 -113
l88 100l95 -79l-99 -113q88 -125 88 -313v-133q0 -243 -142 -381t-386 -138z" />
    <glyph glyph-name="Korea1.769" unicode="&#xfe;" horiz-adv-x="1255" vert-adv-y="2263" 
d="M907 457v121q0 143 -61 224t-178 81t-188 -72t-70 -190v-242q0 -82 78 -153q78 -70 189 -70q112 0 171 79t59 222zM1161 420q1 -226 -121 -358t-342 -132t-284 131v-553h-258v1987h258v-514q82 123 309 123q438 0 438 -481v-203z" />
    <glyph glyph-name="Korea1.758" unicode="&#x111;" horiz-adv-x="1239" vert-adv-y="2263" 
d="M348 578v-127q0 -143 60 -223t176 -78q118 0 190 78t72 198v229q0 88 -67 156t-191 68q-240 0 -240 -301zM549 1198v143h293v154h258v-154h151v-143h-151v-1251h-244v133h-6q-82 -150 -310 -150t-336 125q-110 125 -110 357v198q0 226 122 358t334 132t292 -121v219h-293
z" />
    <glyph glyph-name="Korea1.669" unicode="&#x126;" horiz-adv-x="1468" vert-adv-y="2263" 
d="M428 772h612v215h-612v-215zM1040 -53v612h-612v-612h-262v1040h-143v166h143v270h262v-270h612v270h263v-270h143v-166h-143v-1040h-263z" />
    <glyph glyph-name="Korea1.760" unicode="&#x127;" horiz-adv-x="1232" vert-adv-y="2263" 
d="M-12 1198v143h139v154h244v-154h319v-143h-319v-252h4q109 154 334 154q169 0 281 -102t112 -316v-735h-258v680q0 248 -215 247q-79 0 -152 -46q-92 -58 -92 -214v-667h-258v1251h-139z" />
    <glyph glyph-name="Korea1.761" unicode="&#x131;" horiz-adv-x="610" vert-adv-y="2263" 
d="M176 -53v1128h258v-1128h-258z" />
    <glyph glyph-name="Korea1.670" unicode="&#x132;" horiz-adv-x="1599" vert-adv-y="2263" 
d="M166 -53v1476h262v-1476h-262zM1174 430v993h262v-1056q0 -236 -119 -339q-119 -104 -335 -104t-364 129l121 201q66 -50 117 -70t136 -20q86 0 134 60t48 206z" />
    <glyph glyph-name="Korea1.762" unicode="&#x133;" horiz-adv-x="1105" vert-adv-y="2263" 
d="M944 1075v-1231q0 -354 -358 -354q-135 0 -224 31l41 209q74 -20 147 -20q72 0 104 32q32 33 32 113v1220h258zM680 1241v279h270v-279h-270zM156 1241v279h270v-279h-270zM162 -53v1128h258v-1128h-258z" />
    <glyph glyph-name="Korea1.763" unicode="&#x138;" horiz-adv-x="1191" vert-adv-y="2263" 
d="M414 -53h-258v1128h258v-469l426 469h327l-430 -446l443 -682h-330l-293 493l-143 -145v-348z" />
    <glyph glyph-name="Korea1.671" unicode="&#x13f;" horiz-adv-x="1142" vert-adv-y="2263" 
d="M743 637v266h261v-266h-261zM166 1423h262v-1255h674v-221h-936v1476z" />
    <glyph glyph-name="Korea1.764" unicode="&#x140;" horiz-adv-x="970" vert-adv-y="2263" 
d="M610 629v266h260v-266h-260zM164 -53v1548h258v-1548h-258z" />
    <glyph glyph-name="Korea1.672" unicode="&#x141;" horiz-adv-x="1251" vert-adv-y="2263" 
d="M274 1423h263v-618l303 172l69 -129l-372 -213v-467h673v-221h-936v540l-184 -106l-70 129l254 143v770z" />
    <glyph glyph-name="Korea1.765" unicode="&#x142;" horiz-adv-x="729" vert-adv-y="2263" 
d="M236 1495h258v-590l165 92l58 -110l-223 -127v-813h-258v667l-162 -90l-62 111l224 123v737z" />
    <glyph glyph-name="Korea1.772" unicode="&#x149;" horiz-adv-x="1296" vert-adv-y="2263" 
d="M842 1100q168 0 280 -102t113 -316v-735h-258v680q0 248 -215 247q-79 0 -152 -46q-92 -58 -92 -214v-667h-258v1128h244v-129h4q109 154 334 154zM168 1065h-168l41 365h209z" />
    <glyph glyph-name="Korea1.678" unicode="&#x14a;" horiz-adv-x="1476" vert-adv-y="2263" 
d="M166 -53v1476h297l504 -864q98 -166 104 -225v1089h240v-1581q-1 -182 -99 -267t-248 -85t-237 31l41 209q76 -20 158 -20t114 32q32 33 31 111v84l-602 997q-53 88 -63 151v-1138h-240z" />
    <glyph glyph-name="Korea1.771" unicode="&#x14b;" horiz-adv-x="1191" vert-adv-y="2263" 
d="M872 -162v789q0 248 -215 247q-78 0 -151 -46q-41 -26 -67 -80t-25 -134v-667h-258v1128h243v-129h4q109 154 334 154q168 0 281 -102t112 -316v-854q0 -160 -94 -249t-272 -89q-127 0 -215 31l41 209q74 -20 168 -21q114 0 114 129z" />
    <glyph glyph-name="Korea1.674" unicode="&#x152;" horiz-adv-x="2029" vert-adv-y="2263" 
d="M766 180h219v1014h-219q-170 0 -280 -92t-109 -307v-220q0 -395 389 -395zM1901 1423v-217h-656v-397h613v-213h-613v-432h670v-217h-1186q-301 1 -459 157t-157 463v236q0 303 161 462q162 159 455 158h1172z" />
    <glyph glyph-name="Korea1.767" unicode="&#x153;" horiz-adv-x="1896" vert-adv-y="2263" 
d="M1085 637h496v43q0 88 -65 147q-66 59 -180 59t-182 -56t-69 -166v-27zM578 156q238 0 237 317v88q0 317 -237 318q-233 0 -234 -318v-88q1 -317 234 -317zM1356 -70q-264 0 -393 160q-125 -160 -376 -160t-377 134t-126 385v137q0 246 134 382t375 136t374 -168
q137 168 368 168t361 -130t131 -372v-172h-742v-10q0 -129 76 -199q77 -69 189 -69t183 20t159 72l106 -193q-178 -121 -442 -121z" />
    <glyph glyph-name="Korea1.677" unicode="&#x166;" horiz-adv-x="1169" vert-adv-y="2263" 
d="M20 1423h1129v-221h-432v-426h278v-166h-278v-663h-262v663h-267v166h267v426h-435v221z" />
    <glyph glyph-name="Korea1.770" unicode="&#x167;" horiz-adv-x="798" vert-adv-y="2263" 
d="M209 266v271h-148v147h148v178h-180v213h180v289h258v-289h285v-213h-285v-178h227v-147h-227v-269q0 -68 28 -92q27 -24 95 -24t147 32l41 -207q-109 -47 -231 -47q-184 0 -261 84t-77 252z" />
    <glyph glyph-name="Korea1.8275" unicode="&#x2bc;" horiz-adv-x="61" vert-adv-y="2263" 
 />
    <glyph glyph-name="Korea1.201" unicode="&#x2c7;" horiz-adv-x="1269" vert-adv-y="2263" 
d="M492 1462l141 -147l143 147h180l-221 -321h-203l-223 321h183z" />
    <glyph glyph-name="Korea1.210" unicode="&#x2d0;" vert-adv-y="2263" 
d="M930 342l198 -195h-397zM731 1133h397l-198 -195z" />
    <glyph glyph-name="Korea1.202" unicode="&#x2d8;" horiz-adv-x="1269" vert-adv-y="2263" 
d="M636 1182q-128 0 -206 68t-86 192h176q14 -61 36 -88t80 -27t81 28t33 87h176q-4 -124 -83 -192t-207 -68z" />
    <glyph glyph-name="Korea1.205" unicode="&#x2d9;" horiz-adv-x="1269" vert-adv-y="2263" 
d="M514 1190v235h240v-235h-240z" />
    <glyph glyph-name="Korea1.204" unicode="&#x2da;" horiz-adv-x="634" vert-adv-y="2263" 
d="M315 1106q-88 0 -150 60q-63 60 -63 146t62 144q62 60 151 60t151 -60t62 -144q0 -85 -62 -146q-63 -60 -151 -60zM418 1309q0 47 -29 77t-74 29q-45 0 -73 -30q-28 -29 -27 -75q-1 -46 27 -72t73 -26t74 25t29 72z" />
    <glyph glyph-name="Korea1.207" unicode="&#x2db;" horiz-adv-x="1269" vert-adv-y="2263" 
d="M674 -418q-90 0 -158 60t-68 144q0 85 60 156q59 71 129 101h172q-66 -53 -110 -115t-44 -110q0 -76 103 -76l65 4v-141q-59 -23 -149 -23z" />
    <glyph glyph-name="Korea1.200" unicode="&#x2dc;" horiz-adv-x="1269" vert-adv-y="2263" 
d="M739 1358q51 0 68 74h160q-12 -131 -79 -197t-149 -66q-47 0 -119 34t-98 34q-27 0 -42 -16t-23 -58h-158q12 131 77 197t150 65q47 1 119 -33t94 -34z" />
    <glyph glyph-name="Korea1.203" unicode="&#x2dd;" horiz-adv-x="1269" vert-adv-y="2263" 
d="M274 1130l97 322h254l-152 -322h-199zM647 1130l92 322h250l-151 -322h-191z" />
    <glyph glyph-name="Korea1.471" unicode="&#x391;" horiz-adv-x="1409" vert-adv-y="2263" 
d="M627 872l-101 -301h346l-100 301q-45 129 -74 228q-30 -111 -71 -228zM821 1423l555 -1476h-284l-144 405h-497l-146 -405h-268l549 1476h235z" />
    <glyph glyph-name="Korea1.472" unicode="&#x392;" horiz-adv-x="1353" vert-adv-y="2263" 
d="M627 1206h-201v-385h192q217 0 269 44q51 44 51 147v37q0 93 -70 125t-241 32zM426 608v-444h238q188 0 264 39t76 162v45q0 114 -83 156t-296 42h-199zM166 -53v1476h573q465 0 465 -360v-43q0 -240 -233 -297q301 -45 301 -336v-51q0 -186 -117 -288t-352 -101h-637z
" />
    <glyph glyph-name="Korea1.473" unicode="&#x393;" horiz-adv-x="1142" vert-adv-y="2263" 
d="M428 -53h-262v1476h977v-215h-715v-1261z" />
    <glyph glyph-name="Korea1.474" unicode="&#x394;" horiz-adv-x="1415" vert-adv-y="2263" 
d="M721 1133l-334 -977h662zM45 -53l543 1476h266l539 -1476h-1348z" />
    <glyph glyph-name="Korea1.475" unicode="&#x395;" horiz-adv-x="1245" vert-adv-y="2263" 
d="M166 1423h950v-217h-690v-397h647v-213h-647v-432h704v-217h-964v1476z" />
    <glyph glyph-name="Korea1.476" unicode="&#x396;" horiz-adv-x="1288" vert-adv-y="2263" 
d="M1184 1423v-198l-809 -1053h848v-225h-1172v215l799 1036h-750v225h1084z" />
    <glyph glyph-name="Korea1.477" unicode="&#x397;" horiz-adv-x="1468" vert-adv-y="2263" 
d="M1040 -53v661h-612v-661h-262v1476h262v-598h612v598h263v-1476h-263z" />
    <glyph glyph-name="Korea1.478" unicode="&#x398;" horiz-adv-x="1474" vert-adv-y="2263" 
d="M1047 780v-184h-619v184h619zM737 164q168 0 264 97t97 335v178q0 238 -96 335t-265 97q-360 0 -360 -432v-178q0 -432 360 -432zM301 1298q176 148 438 148t436 -148q87 -74 137 -200t50 -291v-244q0 -327 -174 -483t-450 -156t-451 156q-174 156 -174 483v244
q0 166 50 292t138 199z" />
    <glyph glyph-name="Korea1.479" unicode="&#x399;" horiz-adv-x="593" vert-adv-y="2263" 
d="M166 -53v1476h262v-1476h-262z" />
    <glyph glyph-name="Korea1.480" unicode="&#x39a;" horiz-adv-x="1363" vert-adv-y="2263" 
d="M428 -53h-262v1476h262v-675l582 675h303l-572 -651l602 -825h-331l-447 635l-137 -150v-485z" />
    <glyph glyph-name="Korea1.481" unicode="&#x39b;" horiz-adv-x="1447" vert-adv-y="2263" 
d="M840 1423l571 -1476h-285l-399 1106h-2l-420 -1106h-268l586 1476h217z" />
    <glyph glyph-name="Korea1.482" unicode="&#x39c;" horiz-adv-x="1792" vert-adv-y="2263" 
d="M410 39h-244v1477h373l362 -918l348 918h377v-1477h-248v1247q-20 -80 -69 -223l-310 -778h-208l-306 778q-14 39 -75 223v-1247z" />
    <glyph glyph-name="Korea1.483" unicode="&#x39d;" horiz-adv-x="1476" vert-adv-y="2263" 
d="M166 -53v1476h301l504 -895q68 -123 94 -233v1128h246v-1476h-301l-506 897q-70 123 -92 227v-1124h-246z" />
    <glyph glyph-name="Korea1.484" unicode="&#x39e;" horiz-adv-x="1275" vert-adv-y="2263" 
d="M1096 1202h-1020v221h1020v-221zM158 592v221h858v-221h-858zM76 168h1034v-221h-1034v221z" />
    <glyph glyph-name="Korea1.485" unicode="&#x39f;" horiz-adv-x="1474" vert-adv-y="2263" 
d="M737 164q168 0 264 97t97 335v178q0 238 -96 335t-265 97q-360 0 -360 -432v-178q0 -432 360 -432zM301 1298q176 148 438 148t436 -148q87 -74 137 -200t50 -291v-244q0 -327 -174 -483t-450 -156t-451 156q-174 156 -174 483v244q0 166 50 292t138 199z" />
    <glyph glyph-name="Korea1.486" unicode="&#x3a0;" horiz-adv-x="1411" vert-adv-y="2263" 
d="M1253 1423v-1476h-262v1261h-563v-1261h-262v1476h1087z" />
    <glyph glyph-name="Korea1.487" unicode="&#x3a1;" horiz-adv-x="1302" vert-adv-y="2263" 
d="M711 1204h-283v-469h260q137 0 207 52t70 176v36q1 115 -65 160t-189 45zM166 -53v1476h557q254 -1 380 -115t126 -307v-43q0 -190 -131 -317t-375 -127h-295v-567h-262z" />
    <glyph glyph-name="Korea1.488" unicode="&#x3a3;" horiz-adv-x="1112" vert-adv-y="2263" 
d="M76 1423h971v-221h-648l400 -522l-404 -512h666v-221h-985v184l428 547l-428 567v178z" />
    <glyph glyph-name="Korea1.489" unicode="&#x3a4;" horiz-adv-x="1169" vert-adv-y="2263" 
d="M20 1423h1129v-221h-432v-1255h-262v1255h-435v221z" />
    <glyph glyph-name="Korea1.490" unicode="&#x3a5;" horiz-adv-x="1327" vert-adv-y="2263" 
d="M795 -53h-263v583l-505 893h292l351 -651l344 651h286l-505 -893v-583z" />
    <glyph glyph-name="Korea1.491" unicode="&#x3a6;" horiz-adv-x="1560" vert-adv-y="2263" 
d="M354 758v-84q0 -252 303 -291v661q-303 -38 -303 -286zM1206 674v84q0 248 -305 286v-661q305 39 305 291zM102 662v108q0 213 151 349t404 163v188h244v-188q256 -29 407 -164t150 -348v-108q0 -215 -149 -350q-150 -134 -408 -162v-203h-244v203q-255 29 -405 164
t-150 348z" />
    <glyph glyph-name="Korea1.492" unicode="&#x3a7;" horiz-adv-x="1370" vert-adv-y="2263" 
d="M1298 1423l-440 -718l459 -758h-303l-338 596l-328 -596h-295l457 772l-420 704h316l294 -544l306 544h292z" />
    <glyph glyph-name="Korea1.493" unicode="&#x3a8;" horiz-adv-x="1492" vert-adv-y="2263" 
d="M621 -53v364q-248 33 -378 188t-130 425v458h260v-407q1 -207 65 -305t183 -125v837h258v-835q119 29 180 122t61 306v407h260v-458q0 -268 -129 -423t-372 -190v-364h-258z" />
    <glyph glyph-name="Korea1.494" unicode="&#x3a9;" horiz-adv-x="1542" vert-adv-y="2263" 
d="M1509 176v-229h-641v229q246 53 246 420v182q0 220 -84 326t-260 106t-260 -106t-84 -326v-182q0 -367 246 -420v-229h-641v229h284q-145 137 -145 387v244q0 305 156 472t444 167t444 -167t156 -472v-244q0 -250 -145 -387h284z" />
    <glyph glyph-name="Korea1.495" unicode="&#x3b1;" horiz-adv-x="1234" vert-adv-y="2263" 
d="M348 594v-170q0 -148 55 -208t161 -60t182 62t75 177v230q0 113 -59 181t-185 68q-125 0 -177 -61t-52 -219zM823 -53v145h-2q-25 -70 -103 -116t-179 -46q-449 0 -449 473v228q0 223 114 346t320 123q113 0 190 -44t107 -108v127h258v-1128h-256z" />
    <glyph glyph-name="Korea1.496" unicode="&#x3b2;" horiz-adv-x="1206" vert-adv-y="2263" 
d="M414 1022v-608q0 -260 268 -260q84 0 142 48t59 160v29q0 158 -80 211t-279 47v201q135 0 194 55q58 55 58 170v31q0 41 -10 79q-10 37 -52 73t-110 36q-190 0 -190 -272zM1038 1137v-23q0 -279 -225 -354q145 -16 239 -104t93 -259v-39q0 -190 -119 -309t-297 -119
q-217 0 -315 150v-572h-258v1557q0 211 126 327t326 116t316 -110q114 -109 114 -261z" />
    <glyph glyph-name="Korea1.497" unicode="&#x3b3;" horiz-adv-x="1091" vert-adv-y="2263" 
d="M674 -492h-258v420l-408 1147h271l268 -899l278 899h258l-409 -1143v-424z" />
    <glyph glyph-name="Korea1.498" unicode="&#x3b4;" horiz-adv-x="1179" vert-adv-y="2263" 
d="M590 156q113 0 175 78t62 210v29q0 184 -53 250q-53 65 -180 65q-240 -1 -242 -319v-25q0 -132 62 -210t176 -78zM590 -70q-240 0 -369 131t-129 379v54q0 182 95 320t262 165q-188 133 -189 281v16q0 109 88 170t276 61t341 -69l-72 -207q-105 65 -241 65t-136 -63
q0 -37 70 -94t274 -189q227 -147 227 -473v-37q-1 -248 -129 -379t-368 -131z" />
    <glyph glyph-name="Korea1.499" unicode="&#x3b5;" horiz-adv-x="1040" vert-adv-y="2263" 
d="M547 901q-90 0 -130 -35t-40 -78v-18q0 -78 45 -113t158 -34h137v-193h-137q-113 0 -170 -30t-58 -121v-11q0 -131 217 -131q166 0 310 99l100 -189q-70 -53 -194 -85t-253 -32q-214 0 -336 82t-122 234v28q0 115 71 187q72 72 193 74q-117 12 -175 85t-59 164v29
q0 135 110 211t330 76t371 -72l-63 -190q-137 63 -305 63z" />
    <glyph glyph-name="Korea1.500" unicode="&#x3b6;" horiz-adv-x="962" vert-adv-y="2263" 
d="M61 532q0 199 106 400q105 201 275 342h-299v221h752l25 -143q-258 -160 -430 -372t-171 -407v-38q0 -159 84 -228q45 -37 95 -59t146 -50q193 -59 246 -120q30 -35 36 -66t6 -88q0 -56 -41 -116t-83 -94t-110 -81l-157 166q24 18 46 30q76 42 78 84q1 21 -19 31t-92 25
q-71 16 -114 29q-198 57 -288 167t-91 320v47z" />
    <glyph glyph-name="Korea1.501" unicode="&#x3b7;" horiz-adv-x="1261" vert-adv-y="2263" 
d="M741 1100q174 0 282 -104t107 -310v-1178h-258v1119q0 133 -49 190t-161 57t-180 -68q-69 -68 -68 -192v-667h-258v1128h247v-121q94 146 338 146z" />
    <glyph glyph-name="Korea1.502" unicode="&#x3b8;" horiz-adv-x="1183" vert-adv-y="2263" 
d="M840 618h-496q0 -234 31 -305q46 -113 112 -143q45 -20 105 -20t104 20q45 20 71 62t45 88q28 69 28 298zM840 840q0 219 -38 308t-106 118q-45 18 -104 18q-128 0 -175 -76q-26 -40 -42 -76q-31 -71 -31 -292h496zM592 1507q508 0 508 -729v-123q0 -729 -508 -729
t-508 729v123q0 729 508 729z" />
    <glyph glyph-name="Korea1.503" unicode="&#x3b9;" horiz-adv-x="612" vert-adv-y="2263" 
d="M432 -70q-281 0 -280 263v882h258v-801q0 -96 37 -107q17 -5 59 -5t84 14l22 -217q-74 -29 -180 -29z" />
    <glyph glyph-name="Korea1.504" unicode="&#x3ba;" horiz-adv-x="1175" vert-adv-y="2263" 
d="M414 -53h-258v1128h258v-469l426 469h329l-432 -446l443 -682h-330l-293 493l-143 -145v-348z" />
    <glyph glyph-name="Korea1.505" unicode="&#x3bb;" horiz-adv-x="1095" vert-adv-y="2263" 
d="M320 1507q104 -1 156 -35t87 -126l527 -1399h-263l-284 811h-6l-261 -811h-274l401 1151l-36 129q-23 72 -68 71q-37 1 -94 -32l-72 178q83 63 187 63z" />
    <glyph glyph-name="Korea1.506" unicode="&#x3bc;" horiz-adv-x="1280" vert-adv-y="2263" 
d="M866 1075h258v-1128h-247v139q-20 -74 -85 -115t-144 -41q-80 0 -146 38t-88 100v-560h-258v1567h258v-678q0 -123 70 -184t161 -61q92 0 157 61t64 184v678z" />
    <glyph glyph-name="Korea1.507" unicode="&#x3bd;" horiz-adv-x="1087" vert-adv-y="2263" 
d="M713 -53h-336l-369 1128h283l256 -887h8l258 887h268z" />
    <glyph glyph-name="Korea1.508" unicode="&#x3be;" horiz-adv-x="944" vert-adv-y="2263" 
d="M350 465v-23q0 -86 69 -138t245 -105t236 -107q58 -54 58 -152q0 -96 -57 -166t-164 -143l-162 170q43 25 63 37t42 34q20 22 20 41t-27 29q-27 11 -43 16t-52 13q-35 8 -54 15q-216 61 -326 158t-110 294v25q0 156 96 249t236 101q-115 20 -197 99t-82 200v39
q0 158 118 257q117 99 353 99t369 -96l-115 -192q-106 74 -270 73q-94 0 -145 -40t-52 -107v-25q0 -199 318 -198h84v-224h-90q-201 0 -281 -54t-80 -179z" />
    <glyph glyph-name="Korea1.509" unicode="&#x3bf;" horiz-adv-x="1245" vert-adv-y="2263" 
d="M623 -70q-242 0 -385 138t-144 381v133q0 246 142 382t387 136q244 0 386 -136t142 -382v-133q0 -243 -143 -381t-385 -138zM623 156q123 0 195 72t73 225v125q0 297 -268 296q-268 0 -269 -296v-125q0 -153 73 -225t196 -72z" />
    <glyph glyph-name="Korea1.510" unicode="&#x3c0;" horiz-adv-x="1191" vert-adv-y="2263" 
d="M967 -70q-276 0 -277 263v669h-182v-915h-260v915h-223v221h1142v-221h-223v-588q0 -70 18 -92t67 -22q48 0 91 14l31 -213q-78 -31 -184 -31z" />
    <glyph glyph-name="Korea1.511" unicode="&#x3c1;" horiz-adv-x="1265" vert-adv-y="2263" 
d="M674 156q240 0 239 317v88q0 317 -239 318q-240 0 -240 -318v-88q0 -317 240 -317zM674 1104q240 0 370 -135t130 -383v-137q0 -518 -453 -519q-104 0 -181 39t-108 90v-551h-258v1078q0 248 130 383t370 135z" />
    <glyph glyph-name="Korea1.512" unicode="&#x3c3;" horiz-adv-x="1253" vert-adv-y="2263" 
d="M352 473q0 -153 74 -235t196 -82t196 82t75 235v68q0 153 -75 235q-74 82 -196 82t-196 -82t-74 -235v-68zM1212 1083v-217h-188q129 -86 129 -303v-112q0 -242 -142 -381q-142 -140 -388 -140q-247 0 -389 140t-142 381v112q0 248 141 384t412 136h567z" />
    <glyph glyph-name="Korea1.513" unicode="&#x3c4;" horiz-adv-x="1159" vert-adv-y="2263" 
d="M676 -70q-140 0 -196 66t-56 203v663h-391v221h1093v-221h-444v-594q0 -61 13 -86t58 -25t113 27l49 -207q-99 -47 -239 -47z" />
    <glyph glyph-name="Korea1.514" unicode="&#x3c5;" horiz-adv-x="1189" vert-adv-y="2263" 
d="M600 160q108 0 158 61q51 61 51 230v624h258v-661q0 -236 -105 -360q-106 -124 -366 -124t-367 124q-106 124 -106 360v661h258v-624q0 -166 55 -229q56 -62 164 -62z" />
    <glyph glyph-name="Korea1.515" unicode="&#x3c6;" horiz-adv-x="1413" vert-adv-y="2263" 
d="M344 555v-76q0 -141 60 -208t171 -95v684q-111 -30 -171 -98t-60 -207zM1069 479v76q0 250 -240 305v-692q240 43 240 311zM829 -492h-254v431q-231 35 -358 172t-127 360v92q0 252 164 396q164 145 453 145t453 -144t163 -397v-92q0 -225 -129 -363t-365 -169v-431z" />
    <glyph glyph-name="Korea1.516" unicode="&#x3c7;" horiz-adv-x="1177" vert-adv-y="2263" 
d="M1035 -276q26 0 63 16l67 -184q-76 -66 -221 -66t-192 129l-199 537l-277 -648h-272l393 807l-202 482q-33 78 -70 80q-25 2 -66 -21l-69 180q78 68 220 68t193 -133l187 -488l241 592h271l-357 -756l218 -528q16 -39 31 -53t41 -14z" />
    <glyph glyph-name="Korea1.517" unicode="&#x3c8;" horiz-adv-x="1486" vert-adv-y="2263" 
d="M870 -492h-254v433q-217 29 -355 149t-138 344v641h252v-608q0 -250 241 -295v903h254v-903q242 45 242 295v608h252v-641q0 -223 -139 -344t-355 -149v-433z" />
    <glyph glyph-name="Korea1.518" unicode="&#x3c9;" horiz-adv-x="1581" vert-adv-y="2263" 
d="M516 -70q-184 0 -294 132t-109 409v31q0 145 57 324t137 298l232 -120q-162 -289 -162 -510v-31q0 -111 38 -205t116 -94q77 0 105 58t28 169v406h254v-408q0 -111 26 -168t92 -57q65 0 105 53q67 91 67 246v31q0 223 -164 510l230 120q80 -119 137 -298t57 -324v-31
q0 -274 -110 -408q-111 -133 -295 -133q-94 0 -169 47q-74 48 -99 132h-4q-25 -83 -102 -131t-173 -48z" />
    <glyph glyph-name="Korea1.1026" unicode="&#x401;" horiz-adv-x="1245" vert-adv-y="2263" 
d="M166 1423h950v-217h-690v-397h647v-213h-647v-432h704v-217h-964v1476zM739 1520v229h226v-229h-226zM342 1520v229h225v-229h-225z" />
    <glyph glyph-name="Korea1.1020" unicode="&#x410;" horiz-adv-x="1409" vert-adv-y="2263" 
d="M625 872l-101 -301h346l-100 301q-66 197 -74 226q-16 -60 -71 -226zM819 1423l555 -1476h-284l-144 405h-497l-146 -405h-268l549 1476h235z" />
    <glyph glyph-name="Korea1.1021" unicode="&#x411;" horiz-adv-x="1333" vert-adv-y="2263" 
d="M1124 1423v-213h-696v-362h309q514 0 514 -428v-72q0 -401 -510 -401h-575v1476h958zM428 637v-477h297q131 0 195 36q63 36 63 154v66q0 133 -62 177t-184 44h-309z" />
    <glyph glyph-name="Korea1.1022" unicode="&#x412;" horiz-adv-x="1353" vert-adv-y="2263" 
d="M627 1206h-201v-385h192q217 0 269 44q51 44 51 147v37q0 93 -70 125t-241 32zM426 608v-444h238q188 0 264 39t76 162v45q0 114 -83 156t-296 42h-199zM166 -53v1476h573q465 0 465 -360v-43q0 -240 -233 -297q301 -45 301 -336v-51q0 -186 -117 -288t-352 -101h-637z
" />
    <glyph glyph-name="Korea1.1023" unicode="&#x413;" horiz-adv-x="1187" vert-adv-y="2263" 
d="M428 -53h-262v1476h977v-215h-715v-1261z" />
    <glyph glyph-name="Korea1.1024" unicode="&#x414;" horiz-adv-x="1359" vert-adv-y="2263" 
d="M588 1212v-122q0 -311 -32 -506t-148 -426h575v1054h-395zM346 1423h862v-1265h123v-559h-225v348h-864v-348h-222v559h123q145 252 178 506q17 137 21 227t4 266v266z" />
    <glyph glyph-name="Korea1.1025" unicode="&#x415;" horiz-adv-x="1245" vert-adv-y="2263" 
d="M166 1423h950v-217h-690v-397h647v-213h-647v-432h704v-217h-964v1476z" />
    <glyph glyph-name="Korea1.1027" unicode="&#x416;" horiz-adv-x="1923" vert-adv-y="2263" 
d="M831 -53v667h-16q-35 0 -59 -20t-78 -105l-354 -542h-283l397 598q94 141 185 176q-59 29 -100 79q-40 50 -85 150l-61 142q-33 74 -66 102t-77 29q-44 0 -95 -17l-47 197q66 35 172 35t180 -48q76 -48 131 -171l99 -213q86 -182 145 -183h12v600h261v-600h12
q59 0 145 183l99 213q55 123 131 171t181 48t171 -35l-47 -197q-115 38 -172 -12q-33 -29 -66 -102l-61 -142q-45 -100 -85 -150t-100 -79q90 -35 185 -176l397 -598h-283l-354 542q-55 85 -79 105t-58 20h-16v-667h-261z" />
    <glyph glyph-name="Korea1.1028" unicode="&#x417;" horiz-adv-x="1167" vert-adv-y="2263" 
d="M586 1446q242 0 372 -98t129 -269v-22q-1 -117 -77 -205t-217 -125q154 -8 253 -103t99 -233v-33q1 -188 -147 -311t-414 -123q-332 0 -543 168l121 191q211 -147 440 -148q123 1 195 61t71 179v33q0 207 -333 206h-166v205h172q135 1 209 63t73 167v14q0 76 -63 124
q-62 48 -166 48t-177 -38t-141 -134l-194 137q70 106 201 176t303 70z" />
    <glyph glyph-name="Korea1.1029" unicode="&#x418;" horiz-adv-x="1476" vert-adv-y="2263" 
d="M1311 1423v-1476h-246v1124q-23 -104 -92 -227l-506 -897h-301v1476h246v-1128q27 111 94 233l504 895h301z" />
    <glyph glyph-name="Korea1.1030" unicode="&#x419;" horiz-adv-x="1476" vert-adv-y="2263" 
d="M1311 1423v-1476h-246v1124q-23 -104 -92 -227l-506 -897h-301v1476h246v-1128q27 111 94 233l504 895h301zM755 1509q-128 0 -206 69t-86 191h176q14 -61 36 -88t80 -27t81 28t32 87h176q-4 -123 -82 -191t-207 -69z" />
    <glyph glyph-name="Korea1.1031" unicode="&#x41a;" horiz-adv-x="1331" vert-adv-y="2263" 
d="M188 -53v1476h258v-600h23q53 0 96 47t103 177l65 141q66 141 145 195q79 55 184 55t171 -31l-49 -201q-45 18 -94 19q-88 0 -150 -142l-45 -108q-49 -117 -92 -171t-103 -83q90 -35 185 -176l397 -598h-283l-333 512q-66 100 -104 128t-93 27h-23v-667h-258z" />
    <glyph glyph-name="Korea1.1032" unicode="&#x41b;" horiz-adv-x="1445" vert-adv-y="2263" 
d="M377 1423h903v-1476h-262v1261h-379v-440q0 -365 -121 -548t-455 -286l-77 232q199 81 285 163q47 45 67 117q38 141 39 396v581z" />
    <glyph glyph-name="Korea1.1033" unicode="&#x41c;" horiz-adv-x="1794" vert-adv-y="2263" 
d="M410 -53h-244v1476h373l362 -917l348 917h377v-1476h-248v1247q-29 -131 -63 -223l-309 -778h-222l-305 778q-29 72 -69 223v-1247z" />
    <glyph glyph-name="Korea1.1034" unicode="&#x41d;" horiz-adv-x="1468" vert-adv-y="2263" 
d="M1040 -53v661h-612v-661h-262v1476h262v-598h612v598h263v-1476h-263z" />
    <glyph glyph-name="Korea1.1035" unicode="&#x41e;" horiz-adv-x="1474" vert-adv-y="2263" 
d="M737 164q168 0 264 97t97 335v178q0 238 -96 335t-265 97q-360 0 -360 -432v-178q0 -432 360 -432zM301 1298q176 148 438 148t436 -148q87 -74 137 -200t50 -291v-244q0 -327 -174 -483t-450 -156t-451 156q-174 156 -174 483v244q0 166 50 292t138 199z" />
    <glyph glyph-name="Korea1.1036" unicode="&#x41f;" horiz-adv-x="1419" vert-adv-y="2263" 
d="M1253 1423v-1476h-262v1261h-563v-1261h-262v1476h1087z" />
    <glyph glyph-name="Korea1.1037" unicode="&#x420;" horiz-adv-x="1302" vert-adv-y="2263" 
d="M711 1204h-283v-469h260q137 0 207 52t70 176v36q1 115 -65 160t-189 45zM166 -53v1476h557q254 -1 380 -115t126 -307v-43q0 -190 -131 -317t-375 -127h-295v-567h-262z" />
    <glyph glyph-name="Korea1.1038" unicode="&#x421;" horiz-adv-x="1347" vert-adv-y="2263" 
d="M740 1446q282 0 497 -174l-141 -201q-162 137 -367 137q-352 0 -352 -458v-152q0 -224 102 -328t273 -104q219 0 383 147l137 -192q-201 -197 -555 -197q-262 0 -433 155t-171 466v264q0 315 172 476q173 161 455 161z" />
    <glyph glyph-name="Korea1.1039" unicode="&#x422;" horiz-adv-x="1169" vert-adv-y="2263" 
d="M20 1423h1129v-221h-432v-1255h-262v1255h-435v221z" />
    <glyph glyph-name="Korea1.1040" unicode="&#x423;" horiz-adv-x="1171" vert-adv-y="2263" 
d="M10 1423h291l309 -770l269 770h282l-575 -1499l-258 88l133 338z" />
    <glyph glyph-name="Korea1.1041" unicode="&#x424;" horiz-adv-x="1560" vert-adv-y="2263" 
d="M352 758v-84q0 -252 305 -291v661q-169 -23 -237 -94t-68 -192zM1206 674v84q0 120 -68 192t-237 94v-661q305 39 305 291zM102 662v108q0 213 151 349t404 163v188h244v-188q256 -29 407 -164t150 -348v-108q0 -215 -149 -350q-150 -134 -408 -162v-203h-244v203
q-255 29 -405 164t-150 348z" />
    <glyph glyph-name="Korea1.1042" unicode="&#x425;" horiz-adv-x="1370" vert-adv-y="2263" 
d="M1298 1423l-440 -718l459 -758h-303l-338 596l-328 -596h-295l457 772l-420 704h316l294 -544l306 544h292z" />
    <glyph glyph-name="Korea1.1043" unicode="&#x426;" horiz-adv-x="1384" vert-adv-y="2263" 
d="M166 1423h262v-1261h543v1261h262v-1261h123v-563h-262v348h-928v1476z" />
    <glyph glyph-name="Korea1.1044" unicode="&#x427;" horiz-adv-x="1320" vert-adv-y="2263" 
d="M143 1423h263v-501q0 -146 53 -206t183 -60t251 79v688h262v-1476h-262v565q-123 -72 -279 -72q-211 0 -341 108t-130 316v559z" />
    <glyph glyph-name="Korea1.1045" unicode="&#x428;" horiz-adv-x="1986" vert-adv-y="2263" 
d="M166 1423h260v-1261h436v1261h260v-1261h437v1261h262v-1476h-1655v1476z" />
    <glyph glyph-name="Korea1.1046" unicode="&#x429;" horiz-adv-x="1972" vert-adv-y="2263" 
d="M166 -53v1476h260v-1263h436v1263h260v-1263h437v1263h262v-1261h123v-563h-263v348h-1515z" />
    <glyph glyph-name="Korea1.1047" unicode="&#x42a;" horiz-adv-x="1466" vert-adv-y="2263" 
d="M569 1423v-561h310q514 0 514 -434v-74q0 -408 -510 -407h-576v1263h-276v213h538zM569 651v-489h279q147 0 212 46t64 165v67q0 125 -63 168t-215 43h-277z" />
    <glyph glyph-name="Korea1.1048" unicode="&#x42b;" horiz-adv-x="1779" vert-adv-y="2263" 
d="M166 1423h262v-561h309q514 0 514 -434v-74q0 -408 -510 -407h-575v1476zM428 651v-489h279q147 0 212 46t64 165v67q0 123 -65 167q-66 44 -213 44h-277zM1352 1423h262v-1476h-262v1476z" />
    <glyph glyph-name="Korea1.1049" unicode="&#x42c;" horiz-adv-x="1325" vert-adv-y="2263" 
d="M166 1423h262v-561h309q514 0 514 -434v-74q0 -408 -510 -407h-575v1476zM428 651v-489h279q147 0 212 46t64 165v67q0 123 -65 167q-66 44 -213 44h-277z" />
    <glyph glyph-name="Korea1.1050" unicode="&#x42d;" horiz-adv-x="1347" vert-adv-y="2263" 
d="M317 588v213h658q0 205 -84 308q-85 103 -283 103t-362 -147l-135 207q115 92 233 133t274 41q274 0 446 -163t171 -490v-205q0 -340 -175 -502t-460 -162q-164 0 -284 46t-238 155l137 192q90 -91 182 -125t207 -34q184 0 276 115q91 116 95 315h-658z" />
    <glyph glyph-name="Korea1.1051" unicode="&#x42e;" horiz-adv-x="1906" vert-adv-y="2263" 
d="M1197 164q163 0 248 95t85 337v178q0 242 -85 337t-248 95t-249 -96t-86 -336v-178q0 -240 86 -336t249 -96zM598 807q0 327 165 483t434 156t433 -157t164 -482v-244q0 -331 -162 -485t-436 -154t-436 154t-162 485v10h-174v-626h-258v1476h258v-635h174v19z" />
    <glyph glyph-name="Korea1.1052" unicode="&#x42f;" horiz-adv-x="1404" vert-adv-y="2263" 
d="M977 1204h-260q-254 0 -254 -186v-62q0 -199 272 -198h242v446zM1239 1423v-1476h-262v598h-213q-76 0 -115 -78l-256 -520h-272l285 565q39 78 94 109q-158 41 -228 137t-69 205v63q0 180 126 289t351 108h559z" />
    <glyph glyph-name="Korea1.1053" unicode="&#x430;" horiz-adv-x="1193" vert-adv-y="2263" 
d="M780 410v22h-252q-182 0 -182 -143v-25q0 -117 157 -117t222 76q55 62 55 187zM479 -70q-180 0 -281 83t-102 233v65q0 322 426 322h258v43q0 104 -48 150t-152 46q-176 0 -320 -112l-127 188q217 152 435 152t342 -96q126 -96 126 -265v-792h-231l-4 139
q-31 -72 -127 -114t-195 -42z" />
    <glyph glyph-name="Korea1.1054" unicode="&#x431;" horiz-adv-x="1288" vert-adv-y="2263" 
d="M610 156q117 0 188 76t70 204v82q0 129 -70 205q-71 76 -188 76q-118 0 -188 -76t-70 -205v-82q0 -128 70 -204t188 -76zM682 1024q198 0 323 -132q124 -132 123 -349v-121q0 -223 -143 -357q-143 -135 -375 -135t-376 136q-142 136 -142 370v113q0 479 218 701t691 268
l33 -228q-258 -26 -418 -102t-231 -248q99 84 297 84z" />
    <glyph glyph-name="Korea1.1055" unicode="&#x432;" horiz-adv-x="1157" vert-adv-y="2263" 
d="M563 842h-147v-219h147q117 0 158 20t41 74v24q0 55 -43 78t-156 23zM416 422v-266h168q115 0 171 26t56 97v28q0 67 -47 91t-201 24h-147zM156 -53v1104h452q416 0 416 -281v-14q0 -182 -184 -228q109 -16 172 -75t63 -148v-41q0 -317 -428 -317h-491z" />
    <glyph glyph-name="Korea1.1056" unicode="&#x433;" horiz-adv-x="880" vert-adv-y="2263" 
d="M156 1051h714v-220h-456v-884h-258v1104z" />
    <glyph glyph-name="Korea1.1057" unicode="&#x434;" horiz-adv-x="1220" vert-adv-y="2263" 
d="M561 838v-121q0 -182 -31 -301t-116 -256h399v678h-252zM303 1051h768v-891h98v-494h-258v281h-612v-281h-258v494h88q102 133 138 274t36 369v248z" />
    <glyph glyph-name="Korea1.1058" unicode="&#x435;" horiz-adv-x="1161" vert-adv-y="2263" 
d="M640 -74q-248 0 -398 125t-150 406v116q0 263 142 395t368 132t362 -128t136 -368v-186h-756q0 -272 287 -273q186 1 336 91l104 -185q-184 -125 -431 -125zM344 612h508v50q0 98 -61 161t-187 63t-192 -65q-68 -66 -68 -166v-43z" />
    <glyph glyph-name="Korea1.1060" unicode="&#x436;" horiz-adv-x="1581" vert-adv-y="2263" 
d="M920 -53h-258v467h-7q-18 0 -35 -18t-57 -79l-235 -370h-295l297 446q44 65 74 91t79 40q-61 10 -110 119l-54 117q-33 70 -91 70t-111 -23l-56 221q66 37 177 37q112 0 176 -43t118 -162l46 -92q68 -133 72 -137t9 -4h3v424h258v-424h2q12 1 42 61l40 80l45 92
q55 119 119 162q65 43 176 43t176 -37l-56 -221q-149 65 -202 -47l-54 -117q-49 -109 -110 -119q49 -14 80 -40t73 -91l297 -446h-295l-235 370q-39 61 -56 79t-36 18h-6v-467z" />
    <glyph glyph-name="Korea1.1061" unicode="&#x437;" horiz-adv-x="952" vert-adv-y="2263" 
d="M430 1071q194 0 302 -81t108 -204v-16q0 -188 -183 -238q106 -14 167 -83q60 -70 61 -173v-22q0 -144 -118 -234t-325 -90q-116 0 -238 33t-196 90l109 191q145 -96 326 -96t182 124v21q0 75 -45 99t-160 24h-150v217h154q90 1 124 25t34 77v15q0 106 -146 106t-248 -135
l-149 174q152 176 391 176z" />
    <glyph glyph-name="Korea1.1062" unicode="&#x438;" horiz-adv-x="1267" vert-adv-y="2263" 
d="M1112 1051v-1104h-248v702q-25 -70 -94 -170l-405 -532h-209v1104h247v-693q29 70 101 164l401 529h207z" />
    <glyph glyph-name="Korea1.1063" unicode="&#x439;" horiz-adv-x="1267" vert-adv-y="2263" 
d="M636 1182q-128 0 -206 68t-86 192h176q14 -61 36 -88t80 -27t81 28t33 87h176q-4 -124 -83 -192t-207 -68zM1112 1051v-1104h-248v704q-27 -80 -94 -168l-405 -536h-209v1104h247v-697q39 84 101 162l401 535h207z" />
    <glyph glyph-name="Korea1.1064" unicode="&#x43a;" horiz-adv-x="1105" vert-adv-y="2263" 
d="M160 -53v1100h258v-420h10q18 0 36 25q17 26 50 100l51 114q49 111 121 153t173 42t179 -39l-51 -215q-45 20 -107 20t-89 -57l-60 -125q-47 -100 -110 -121q47 -14 79 -43t74 -88l297 -446h-301l-248 391q-31 47 -47 61t-43 15h-14v-467h-258z" />
    <glyph glyph-name="Korea1.1065" unicode="&#x43b;" horiz-adv-x="1239" vert-adv-y="2263" 
d="M260 1051h823v-1104h-258v887h-307v-273q0 -401 -221 -546q-90 -58 -221 -81l-56 232q147 61 194 137q46 76 46 281v467z" />
    <glyph glyph-name="Korea1.1066" unicode="&#x43c;" horiz-adv-x="1464" vert-adv-y="2263" 
d="M401 -53h-245v1104h325l254 -664l252 664h322v-1104h-262v784q-18 -76 -52 -164l-172 -458h-194l-176 450q-12 31 -52 172v-784z" />
    <glyph glyph-name="Korea1.1067" unicode="&#x43d;" horiz-adv-x="1277" vert-adv-y="2263" 
d="M156 1051h258v-424h450v424h258v-1104h-258v459h-450v-459h-258v1104z" />
    <glyph glyph-name="Korea1.1068" unicode="&#x43e;" horiz-adv-x="1245" vert-adv-y="2263" 
d="M623 -70q-242 0 -385 138t-144 381v133q0 246 142 382t387 136q244 0 386 -136t142 -382v-133q0 -243 -143 -381t-385 -138zM623 156q123 0 195 72t73 225v125q0 297 -268 296q-268 0 -269 -296v-125q0 -153 73 -225t196 -72z" />
    <glyph glyph-name="Korea1.1069" unicode="&#x43f;" horiz-adv-x="1230" vert-adv-y="2263" 
d="M156 1051h919v-1104h-258v882h-403v-882h-258v1104z" />
    <glyph glyph-name="Korea1.1070" unicode="&#x440;" horiz-adv-x="1271" vert-adv-y="2263" 
d="M907 457v121q0 143 -61 224t-178 81t-188 -72t-70 -190v-242q0 -82 78 -153q78 -70 189 -70q112 0 171 79t59 222zM1161 420q1 -234 -117 -362t-326 -128t-304 129v-551h-258v1575h247v-122q87 143 315 143t336 -128t107 -353v-203z" />
    <glyph glyph-name="Korea1.1071" unicode="&#x441;" horiz-adv-x="1073" vert-adv-y="2263" 
d="M602 1100q238 0 412 -133l-125 -189q-121 96 -287 96q-106 0 -178 -70t-72 -214v-137q0 -295 254 -295q178 0 307 96l123 -188q-63 -56 -176 -96t-256 -40q-246 0 -379 138t-133 381v141q0 240 136 375t374 135z" />
    <glyph glyph-name="Korea1.1072" unicode="&#x442;" horiz-adv-x="972" vert-adv-y="2263" 
d="M37 1051h899v-222h-328v-882h-258v882h-313v222z" />
    <glyph glyph-name="Korea1.1073" unicode="&#x443;" horiz-adv-x="1095" vert-adv-y="2263" 
d="M6 1083h287l252 -841h16l254 841h275l-590 -1605l-242 84l150 370z" />
    <glyph glyph-name="Korea1.1074" unicode="&#x444;" horiz-adv-x="1431" vert-adv-y="2263" 
d="M371 455q0 -244 227 -308v697q-227 -61 -227 -297v-92zM1075 547q0 238 -227 297v-697q227 70 227 308v92zM598 1423h250v-362q233 -29 360 -162t127 -344v-109q0 -211 -127 -344t-360 -161v-406h-250v406q-233 29 -360 161t-127 344v109q0 213 127 345t360 161v362z" />
    <glyph glyph-name="Korea1.1075" unicode="&#x445;" horiz-adv-x="1107" vert-adv-y="2263" 
d="M1061 1083l-338 -544l348 -592h-317l-207 415l-209 -415h-301l356 592l-342 544h324l192 -376l203 376h291z" />
    <glyph glyph-name="Korea1.1076" unicode="&#x446;" horiz-adv-x="1198" vert-adv-y="2263" 
d="M791 1051h258v-887h98v-498h-258v281h-733v1104h258v-887h377v887z" />
    <glyph glyph-name="Korea1.1077" unicode="&#x447;" horiz-adv-x="1140" vert-adv-y="2263" 
d="M82 1051h258v-338q0 -113 40 -153t139 -40t204 72v459h258v-1121h-258v439q-88 -68 -244 -68q-218 0 -334 139q-63 78 -63 189v422z" />
    <glyph glyph-name="Korea1.1078" unicode="&#x448;" horiz-adv-x="1687" vert-adv-y="2263" 
d="M1532 -53h-1376v1104h258v-891h301v891h258v-891h301v891h258v-1104z" />
    <glyph glyph-name="Korea1.1079" unicode="&#x449;" horiz-adv-x="1681" vert-adv-y="2263" 
d="M1532 1051v-891h98v-494h-258v281h-1216v1104h258v-891h301v891h258v-891h301v891h258z" />
    <glyph glyph-name="Korea1.1080" unicode="&#x44a;" horiz-adv-x="1177" vert-adv-y="2263" 
d="M494 481v-321h133q135 0 189 30t54 117v25q0 92 -50 121t-185 28h-141zM31 831v220h463v-357h237q186 0 294 -92t108 -262v-39q-1 -158 -103 -256t-297 -98h-497v884h-205z" />
    <glyph glyph-name="Korea1.1081" unicode="&#x44b;" horiz-adv-x="1587" vert-adv-y="2263" 
d="M414 481v-321h133q135 0 189 30t55 117v25q-1 92 -51 121t-185 28h-141zM1174 1051h258v-1104h-258v1104zM156 1051h258v-357h237q199 0 300 -92t102 -266v-31q-1 -162 -97 -260t-303 -98h-497v1104z" />
    <glyph glyph-name="Korea1.1082" unicode="&#x44c;" horiz-adv-x="1097" vert-adv-y="2263" 
d="M156 1051h258v-357h237q199 0 300 -92t102 -266v-31q-1 -162 -97 -260t-303 -98h-497v1104zM414 481v-321h133q127 0 185 28t59 119v25q-1 98 -55 124t-181 25h-141z" />
    <glyph glyph-name="Korea1.1083" unicode="&#x44d;" horiz-adv-x="1073" vert-adv-y="2263" 
d="M276 401v213h445q0 272 -250 273q-162 0 -287 -107l-123 185q170 139 409 139t375 -135t136 -375v-145q0 -518 -512 -519q-291 0 -436 133l127 189q138 -102 286 -102t208 63t67 188h-445z" />
    <glyph glyph-name="Korea1.1084" unicode="&#x44e;" horiz-adv-x="1613" vert-adv-y="2263" 
d="M1020 156q113 0 167 76t54 241v88q0 164 -54 241t-167 77t-167 -77t-54 -241v-88q0 -165 54 -241t167 -76zM541 618q1 236 121 361t354 125t360 -133q125 -133 125 -385v-137q0 -251 -125 -385t-347 -134t-355 116t-133 343h-123v-442h-254v1104h254v-433h123z" />
    <glyph glyph-name="Korea1.1085" unicode="&#x44f;" horiz-adv-x="1128" vert-adv-y="2263" 
d="M715 838h-238q-69 0 -101 -29t-32 -94v-15q0 -123 213 -122h158v260zM973 1051v-1104h-258v409h-92q-68 0 -100 -16t-54 -66l-156 -327h-297l179 358q51 106 135 137q-106 12 -177 87t-71 190v22q0 309 387 310h504z" />
    <glyph glyph-name="Korea1.1059" unicode="&#x451;" horiz-adv-x="1161" vert-adv-y="2263" 
d="M640 -74q-248 0 -398 125t-150 406v116q0 263 142 395t368 132t362 -128t136 -368v-186h-756q0 -272 287 -273q186 1 336 91l104 -185q-184 -125 -431 -125zM344 612h508v50q0 98 -61 161t-187 63t-192 -65q-68 -66 -68 -166v-43zM268 1190v229h226v-229h-226zM666 1190
v229h225v-229h-225z" />
    <glyph glyph-name="Korea1.97" unicode="&#x2010;" horiz-adv-x="860" vert-adv-y="2263" 
d="M807 711v-232h-754v232h754z" />
    <glyph glyph-name="Korea1.110" unicode="&#x2014;" horiz-adv-x="1794" vert-adv-y="2263" 
d="M1794 731v-168h-1794v168h1794z" />
    <glyph glyph-name="Korea1.111" unicode="&#x2016;" vert-adv-y="2263" 
d="M809 1597v-1966h-115v1966h115zM1169 1597v-1966h-116v1966h116z" />
    <glyph glyph-name="Korea1.114" unicode="&#x2018;" horiz-adv-x="409" vert-adv-y="2263" 
d="M385 1587l-82 -473h-278l163 473h197z" />
    <glyph glyph-name="Korea1.115" unicode="&#x2019;" horiz-adv-x="409" vert-adv-y="2263" 
d="M25 1081l81 473h279l-164 -473h-196z" />
    <glyph glyph-name="Korea1.8238" unicode="&#x201b;" horiz-adv-x="61" vert-adv-y="2263" 
 />
    <glyph glyph-name="Korea1.116" unicode="&#x201c;" horiz-adv-x="716" vert-adv-y="2263" 
d="M688 1587l-86 -473h-250l164 473h172zM381 1587l-86 -473h-250l164 473h172z" />
    <glyph glyph-name="Korea1.117" unicode="&#x201d;" horiz-adv-x="716" vert-adv-y="2263" 
d="M29 1081l86 473h250l-164 -473h-172zM336 1081l86 473h250l-164 -473h-172z" />
    <glyph glyph-name="Korea1.8237" unicode="&#x201f;" horiz-adv-x="61" vert-adv-y="2263" 
 />
    <glyph glyph-name="Korea1.245" unicode="&#x2020;" horiz-adv-x="1007" vert-adv-y="2263" 
d="M399 -186v995h-344v205h344v409h211v-409h342v-205h-342v-995h-211z" />
    <glyph glyph-name="Korea1.246" unicode="&#x2021;" horiz-adv-x="1007" vert-adv-y="2263" 
d="M55 223v203h344v385h-344v203h344v409h211v-409h342v-203h-342v-385h342v-203h-342v-409h-211v409h-344z" />
    <glyph glyph-name="Korea1.8607" unicode="&#x2022;" horiz-adv-x="1986" vert-adv-y="2263" 
 />
    <glyph glyph-name="Korea1.105" unicode="&#x2025;" vert-adv-y="2263" 
d="M1090 487v263h264v-263h-264zM508 487v263h264v-263h-264z" />
    <glyph glyph-name="Korea1.106" unicode="&#x2026;" vert-adv-y="2263" 
d="M1352 487v263h264v-263h-264zM246 487v263h264v-263h-264zM799 487v263h264v-263h-264z" />
    <glyph glyph-name="Korea1.216" unicode="&#x2030;" horiz-adv-x="2668" vert-adv-y="2263" 
d="M2200 104q150 0 149 183v71q0 182 -149 183q-150 0 -150 -183v-71q0 -183 150 -183zM2200 715q162 0 256 -95t94 -258v-79q0 -162 -94 -257q-94 -96 -256 -96t-256 96t-95 257v79q1 162 95 258t256 95zM1409 104q150 0 150 183v71q0 182 -150 183q-150 0 -149 -183v-71
q-1 -183 149 -183zM1409 715q162 0 256 -95t94 -258v-79q0 -162 -94 -257q-94 -96 -256 -96t-256 96t-94 257v79q0 162 94 258t256 95zM469 842q150 0 149 182v72q0 182 -150 182t-149 -182v-72q0 -182 150 -182zM469 1452q162 0 256 -95t94 -257v-80q0 -162 -94 -257
t-256 -95t-256 95t-94 257v80q0 162 94 257t256 95zM616 -51h-237l883 1474h235z" />
    <glyph glyph-name="Korea1.139" unicode="&#x2032;" horiz-adv-x="817" vert-adv-y="2263" 
d="M346 1516h266l-280 -549h-127z" />
    <glyph glyph-name="Korea1.140" unicode="&#x2033;" horiz-adv-x="1228" vert-adv-y="2263" 
d="M756 1516h268l-281 -549h-129zM346 1516h268l-280 -549h-129z" />
    <glyph glyph-name="Korea1.8582" unicode="&#x2034;" horiz-adv-x="548" vert-adv-y="2263" 
 />
    <glyph glyph-name="Korea1.9326" unicode="&#x2035;" horiz-adv-x="1986" vert-adv-y="2263" 
 />
    <glyph glyph-name="Korea1.9324" unicode="&#x2036;" horiz-adv-x="1986" vert-adv-y="2263" 
 />
    <glyph glyph-name="Korea1.8612" unicode="&#x2039;" horiz-adv-x="1986" vert-adv-y="2263" 
 />
    <glyph glyph-name="Korea1.8613" unicode="&#x203a;" horiz-adv-x="1986" vert-adv-y="2263" 
 />
    <glyph glyph-name="Korea1.156" unicode="&#x203b;" horiz-adv-x="1884" vert-adv-y="2263" 
d="M938 176q80 0 140 -56t59 -135t-59 -137t-138 -59q-80 0 -136 57q-56 58 -56 138t55 136t135 56zM1584 805q82 -1 138 -57t56 -138t-56 -138t-137 -56q-80 0 -139 57q-60 57 -60 138t58 137t140 57zM535 608q-1 -78 -61 -137t-138 -59t-138 60t-60 138t58 136
q60 58 138 58t140 -58q62 -60 61 -138zM938 1415q80 0 140 -58t61 -137q1 -78 -59 -138t-140 -60t-138 59t-58 139t56 137q58 58 138 58zM1595 -193l-653 666l-649 -666l-154 148l666 655l-662 658l140 153l655 -671l661 671l142 -153l-662 -658l666 -655z" />
    <glyph glyph-name="Korea1.8763" unicode="&#x203c;" horiz-adv-x="1986" vert-adv-y="2263" 
 />
    <glyph glyph-name="Korea1.357" unicode="&#x203e;" vert-adv-y="2263" 
d="M1853 1561v-80h-1843v80h1843z" />
    <glyph glyph-name="Korea1.8599" unicode="&#x2042;" horiz-adv-x="1986" vert-adv-y="2263" 
 />
    <glyph glyph-name="Korea1.845" unicode="&#x2074;" horiz-adv-x="819" vert-adv-y="2263" 
d="M487 934v336l-208 -336h208zM707 1280v-346h110v-182h-110v-170h-220v170h-464v147l387 621h233l-149 -240h213z" />
    <glyph glyph-name="Korea1.8239" unicode="&#x207a;" horiz-adv-x="61" vert-adv-y="2263" 
 />
    <glyph glyph-name="Korea1.8240" unicode="&#x207b;" horiz-adv-x="61" vert-adv-y="2263" 
 />
    <glyph glyph-name="Korea1.8248" unicode="&#x207c;" horiz-adv-x="61" vert-adv-y="2263" 
 />
    <glyph glyph-name="Korea1.8250" unicode="&#x207d;" horiz-adv-x="61" vert-adv-y="2263" 
 />
    <glyph glyph-name="Korea1.8251" unicode="&#x207e;" horiz-adv-x="61" vert-adv-y="2263" 
 />
    <glyph glyph-name="Korea1.846" unicode="&#x207f;" horiz-adv-x="989" vert-adv-y="2263" 
d="M885 1161v-579h-223v528q0 98 -36 142t-114 44q-182 0 -182 -200v-514h-226v901h209v-99q49 61 107 86t173 25q116 0 204 -86t88 -248z" />
    <glyph glyph-name="Korea1.847" unicode="&#x2081;" horiz-adv-x="819" vert-adv-y="2263" 
d="M598 -229h-231v684l-205 -123l-113 188l352 189h197v-938z" />
    <glyph glyph-name="Korea1.848" unicode="&#x2082;" horiz-adv-x="819" vert-adv-y="2263" 
d="M496 438v4q0 80 -100 80t-169 -102l-174 115q121 193 344 192q156 0 242 -77t86 -195v-11q0 -131 -184 -319l-162 -164h383v-190h-696v141l305 321q80 86 102 124q23 38 23 81z" />
    <glyph glyph-name="Korea1.849" unicode="&#x2083;" horiz-adv-x="819" vert-adv-y="2263" 
d="M383 723q152 0 240 -66t88 -180v-18q0 -143 -121 -199q80 -14 125 -67t45 -125v-31q0 -129 -89 -208t-284 -79t-338 115l107 170q117 -90 229 -90q72 1 107 29t34 71v16q0 98 -161 99h-119v186h119q119 0 118 94v11q0 84 -112 84q-91 0 -152 -80l-149 116q98 152 313 152
z" />
    <glyph glyph-name="Korea1.850" unicode="&#x2084;" horiz-adv-x="819" vert-adv-y="2263" 
d="M487 127v336l-208 -336h208zM707 473v-346h110v-182h-110v-170h-220v170h-464v147l387 621h233l-149 -240h213z" />
    <glyph glyph-name="Korea1.96" unicode="&#x20a9;" horiz-adv-x="1970" vert-adv-y="2263" 
d="M1006 1085l-70 -270h127zM1298 670l78 -336l60 336h-138zM551 670l65 -324l86 324h-151zM66 670v145h217l-152 608h260l131 -608h215l160 608h227l144 -608h196l123 608h256l-149 -608h211v-145h-246l-172 -723h-225l-166 723h-197l-182 -723h-217l-181 723h-253z" />
    <glyph glyph-name="Korea1.141" unicode="&#x2103;" horiz-adv-x="1773" vert-adv-y="2263" 
d="M1122 1446q160 0 279 -38t229 -126l-141 -201q-84 72 -170 98t-197 25q-352 0 -352 -454v-152q0 -222 99 -326t251 -104q258 0 406 154l139 -201q-201 -197 -555 -197q-262 0 -433 155t-171 466v264q0 315 172 476t444 161zM385 1286q0 32 -23 56q-24 24 -60 24t-58 -24
t-23 -56q0 -32 23 -56q24 -24 60 -24t58 24t23 56zM510 1286q0 -82 -58 -139t-148 -57t-149 57q-58 57 -59 139q0 82 58 139t149 57t149 -56q58 -58 58 -140z" />
    <glyph glyph-name="Korea1.215" unicode="&#x2109;" horiz-adv-x="1576" vert-adv-y="2263" 
d="M385 1286q0 32 -23 56q-24 24 -60 24t-58 -24t-23 -56q0 -32 23 -56q24 -24 60 -24t58 24t23 56zM510 1286q0 -82 -58 -139t-148 -57t-149 57q-58 57 -59 139q0 82 58 139t149 57t149 -56q58 -58 58 -140zM846 -53h-262v1476h950v-221h-688v-422h645v-221h-645v-612z" />
    <glyph glyph-name="Korea1.590" unicode="&#x2113;" vert-adv-y="2263" 
d="M936 1006v-523q98 178 98 373v150q0 215 -49 215t-49 -215zM1009 -70q-165 0 -244 70t-79 236v821q0 176 70 282t227 107q301 0 301 -389v-205q0 -213 -96 -368t-252 -244v-19q0 -84 90 -84q76 0 133 58l119 -160q-104 -105 -269 -105z" />
    <glyph glyph-name="Korea1.258" unicode="&#x2116;" horiz-adv-x="1822" vert-adv-y="2263" 
d="M1094 -53v184h608v-184h-608zM1397 385q152 0 151 209v59q0 211 -151 211q-68 0 -110 -52t-42 -159v-59q0 -106 42 -158t110 -51zM1036 674q0 178 100 278t262 99q161 -1 262 -99t101 -278v-96q0 -180 -101 -280t-262 -101q-161 0 -261 100t-101 281v96zM111 -53v1476
h292l269 -792q68 -201 96 -334v1126h223v-1476h-293l-274 792q-74 207 -90 334v-1126h-223z" />
    <glyph glyph-name="Korea1.263" unicode="&#x2121;" horiz-adv-x="2183" vert-adv-y="2263" 
d="M1548 1051h254v-891h369v-213h-623v1104zM12 1423h981v-213h-360v-1263h-256v1263h-365v213zM811 1051h651v-213h-397v-209h354v-213h-354v-256h412v-213h-666v1104z" />
    <glyph glyph-name="Korea1.260" unicode="&#x2122;" horiz-adv-x="1452" vert-adv-y="2263" 
d="M209 756v528h-182v139h557v-139h-183v-528h-192zM637 756v667h217l154 -362h4l176 362h205v-667h-179v403l-135 -274h-141l-137 303h-4v-432h-160z" />
    <glyph glyph-name="Korea1.643" unicode="&#x2126;" vert-adv-y="2263" 
d="M1712 176v-229h-641v225q117 26 181 134t65 296v176q1 211 -101 322q-102 110 -284 110t-284 -110q-101 -111 -101 -322v-176q1 -188 65 -297t181 -133v-225h-641v229h272q-133 139 -133 387v244q0 303 173 471t468 168t468 -168t173 -471v-244q0 -248 -133 -387h272z
" />
    <glyph glyph-name="Korea1.142" unicode="&#x212b;" horiz-adv-x="1409" vert-adv-y="2263" 
d="M786 1405q0 35 -26 61t-62 25q-36 0 -62 -26q-26 -27 -26 -61t26 -60t62 -25q36 -1 62 25t26 61zM625 872l-101 -301h346l-100 301q-45 129 -74 228q-30 -111 -71 -228zM481 1409q-1 82 61 142q62 61 156 61t156 -60t61 -139q0 -78 -43 -133l502 -1333h-284l-144 405
h-497l-146 -405h-268l493 1327q-47 53 -47 135z" />
    <glyph glyph-name="Korea1.749" unicode="&#x2153;" horiz-adv-x="1884" vert-adv-y="2263" 
d="M1776 541v-19q0 -143 -121 -198q80 -14 125 -68t45 -125v-31q0 -129 -89 -208q-89 -78 -284 -78t-338 114l107 170q117 -90 229 -90q72 0 106 29t35 72v16q0 98 -161 98h-119v187h119q119 0 118 94v10q0 84 -112 84q-91 0 -152 -80l-149 117q98 152 313 151
q152 0 240 -66t88 -179zM598 485h-231v684l-205 -122l-113 188l352 188h197v-938zM326 -135l1071 1587h211l-1071 -1587h-211z" />
    <glyph glyph-name="Korea1.750" unicode="&#x2154;" horiz-adv-x="1986" vert-adv-y="2263" 
d="M1878 541v-19q0 -143 -121 -198q80 -14 125 -68t45 -125v-31q0 -129 -89 -208q-90 -78 -284 -78t-337 114l106 170q117 -90 229 -90q72 0 107 29t35 72v16q0 98 -162 98h-119v187h119q119 0 119 94v10q0 84 -113 84q-91 0 -152 -80l-149 117q98 152 313 151
q152 0 240 -66t88 -179zM508 1153v4q0 80 -100 80t-168 -102l-174 114q121 193 344 193q156 0 242 -77t85 -196v-10q0 -131 -184 -319l-162 -164h383v-191h-696v142l305 321q80 86 102 124q23 38 23 81zM428 -135l1071 1587h211l-1071 -1587h-211z" />
    <glyph glyph-name="Korea1.753" unicode="&#x215b;" horiz-adv-x="1861" vert-adv-y="2263" 
d="M598 485h-231v684l-205 -122l-113 188l352 188h197v-938zM1128 80v26q0 72 46 132t102 75q-55 27 -89 85t-34 110v14q0 115 84 191q84 75 238 75q155 0 239 -78t84 -188v-14q0 -52 -33 -108t-88 -87q57 -16 101 -75t45 -132v-26q0 -115 -93 -191q-93 -75 -255 -75
q-163 0 -255 76t-92 190zM1354 113v-17q0 -49 32 -77q32 -27 90 -27q56 0 89 28t32 76v17q-1 45 -33 71t-88 27q-56 -1 -89 -27t-33 -71zM1368 524v-12q0 -47 33 -76q33 -28 76 -28t73 28t31 76v12q0 43 -27 69q-28 25 -78 25t-79 -26t-29 -68zM326 -135l1071 1587h211
l-1071 -1587h-211z" />
    <glyph glyph-name="Korea1.754" unicode="&#x215c;" horiz-adv-x="1896" vert-adv-y="2263" 
d="M383 1442q152 0 240 -66t88 -180v-18q0 -143 -121 -199q80 -13 125 -67t45 -126v-30q0 -129 -89 -208t-284 -79t-338 115l107 170q117 -90 229 -90q72 0 107 28t34 72v16q0 98 -161 99h-119v186h119q119 0 118 94v10q0 84 -112 84q-91 1 -152 -79l-149 116
q98 152 313 152zM1163 80v26q0 72 45 132t103 75q-55 27 -89 85t-34 110v14q0 115 84 191q84 75 238 75t238 -78q85 -78 85 -188v-14q0 -52 -33 -108t-88 -87q58 -16 102 -75t44 -132v-26q0 -115 -94 -191q-94 -75 -255 -75q-162 0 -254 76t-92 190zM1389 113v-17
q1 -49 33 -77q32 -27 88 -27t90 28q32 28 32 76v17q0 45 -33 71t-89 27q-56 -1 -88 -27t-33 -71zM1403 524v-12q0 -47 33 -76q34 -28 76 -28t73 28t31 76v12q0 43 -27 69q-27 25 -78 25t-79 -26t-29 -68zM356 -135l1071 1587h211l-1071 -1587h-211z" />
    <glyph glyph-name="Korea1.755" unicode="&#x215d;" horiz-adv-x="1882" vert-adv-y="2263" 
d="M1149 80v26q0 72 45 132t102 75q-55 27 -89 85t-33 110v14q0 115 83 191q84 75 238 75t239 -78t85 -188v-14q0 -52 -33 -108t-88 -87q57 -16 101 -75t44 -132v-26q0 -115 -93 -191q-93 -75 -255 -75t-254 76t-92 190zM1374 113v-17q0 -49 33 -77q33 -27 89 -27t89 28
t33 76v17q0 45 -33 71t-89 27q-56 -1 -89 -27t-33 -71zM1389 524v-12q1 -47 33 -76q32 -28 75 -28t74 28t31 76v12q0 43 -27 69q-27 25 -78 25t-80 -26q-28 -27 -28 -68zM762 803v-21q0 -129 -94 -221t-282 -92t-310 104l102 168q64 -45 110 -63t110 -18t101 36q36 37 36 88
v9q0 119 -113 118q-88 0 -141 -69h-150l31 581h536v-174h-350l-4 -192q59 39 166 39q108 0 180 -86t72 -207zM346 -135l1071 1587h211l-1071 -1587h-211z" />
    <glyph glyph-name="Korea1.756" unicode="&#x215e;" horiz-adv-x="1693" vert-adv-y="2263" 
d="M961 80v26q0 72 45 132t102 75q-55 27 -89 85t-34 110v14q0 115 84 191q84 75 238 75q155 0 239 -78t84 -188v-14q0 -52 -33 -108t-88 -87q57 -16 101 -75t45 -132v-26q0 -115 -93 -191q-93 -75 -255 -75t-254 76t-92 190zM1186 113v-17q0 -49 33 -77q33 -27 89 -27
t89 28t33 76v17q0 45 -33 71t-89 27q-56 -1 -89 -27t-33 -71zM1200 524v-12q0 -47 33 -76q33 -28 76 -28t73 28t31 76v12q0 43 -27 69q-28 25 -78 25t-79 -26t-29 -68zM41 1231v192h690v-180l-362 -758h-240l354 746h-442zM154 -135l1071 1587h211l-1071 -1587h-211z" />
    <glyph glyph-name="Korea1.461" unicode="&#x2160;" vert-adv-y="2263" 
d="M799 -53v1476h262v-1476h-262z" />
    <glyph glyph-name="Korea1.462" unicode="&#x2161;" vert-adv-y="2263" 
d="M1051 -53v1476h262v-1476h-262zM551 -53v1476h262v-1476h-262z" />
    <glyph glyph-name="Korea1.463" unicode="&#x2162;" vert-adv-y="2263" 
d="M803 -53v1476h262v-1476h-262zM1284 -53v1476h262v-1476h-262zM313 -53v1476h262v-1476h-262z" />
    <glyph glyph-name="Korea1.464" unicode="&#x2163;" vert-adv-y="2263" 
d="M317 -53v1476h263v-1476h-263zM1198 297l295 1126h264l-448 -1476h-238l-438 1476h272q47 -180 145 -555t148 -571z" />
    <glyph glyph-name="Korea1.465" unicode="&#x2164;" vert-adv-y="2263" 
d="M1618 1423l-586 -1476h-217q-93 247 -285 739t-286 737h284l400 -1110l422 1110h268z" />
    <glyph glyph-name="Korea1.466" unicode="&#x2165;" vert-adv-y="2263" 
d="M1284 -53v1476h262v-1476h-262zM672 303l295 1120h264l-449 -1476h-237l-439 1476h273q47 -180 144 -553t149 -567z" />
    <glyph glyph-name="Korea1.467" unicode="&#x2166;" vert-adv-y="2263" 
d="M1112 -53v1476h234v-1476h-234zM1456 -53v1476h234v-1476h-234zM1073 1423l-393 -1476h-246l-407 1476h256l272 -1130q34 147 266 1130h252z" />
    <glyph glyph-name="Korea1.468" unicode="&#x2167;" vert-adv-y="2263" 
d="M918 -53v1476h217v-1476h-217zM1231 -53v1476h217v-1476h-217zM1554 -53v1476h218v-1476h-218zM463 289l168 1134h239l-282 -1476h-246q-51 247 -149 739t-148 737h244z" />
    <glyph glyph-name="Korea1.469" unicode="&#x2168;" vert-adv-y="2263" 
d="M350 -53v1476h254v-1476h-254zM1737 1423l-381 -723l411 -753h-294l-289 592l-258 -592h-287l393 776l-356 700h291l245 -544l248 544h277z" />
    <glyph glyph-name="Korea1.470" unicode="&#x2169;" vert-adv-y="2263" 
d="M1544 1423l-440 -718l459 -758h-303l-338 596l-328 -596h-295l457 772l-420 704h315l295 -544l305 544h293z" />
    <glyph glyph-name="Korea1.451" unicode="&#x2170;" vert-adv-y="2263" 
d="M797 1241v279h270v-279h-270zM803 -53v1128h258v-1128h-258z" />
    <glyph glyph-name="Korea1.452" unicode="&#x2171;" vert-adv-y="2263" 
d="M1055 1241v279h270v-279h-270zM1061 -53v1128h258v-1128h-258zM541 1241v279h270v-279h-270zM547 -53v1128h258v-1128h-258z" />
    <glyph glyph-name="Korea1.453" unicode="&#x2172;" vert-adv-y="2263" 
d="M1266 1241v279h270v-279h-270zM1272 -53v1128h258v-1128h-258zM330 1241v279h270v-279h-270zM336 -53v1128h258v-1128h-258zM799 1241v279h270v-279h-270zM805 -53v1128h258v-1128h-258z" />
    <glyph glyph-name="Korea1.454" unicode="&#x2173;" vert-adv-y="2263" 
d="M1333 -53h-348l-295 1128h275l190 -891h8l197 891h266zM401 1241v279h271v-279h-271zM408 -53v1128h258v-1128h-258z" />
    <glyph glyph-name="Korea1.455" unicode="&#x2174;" vert-adv-y="2263" 
d="M1100 -53h-336l-369 1128h283l256 -887h8l258 887h268z" />
    <glyph glyph-name="Korea1.456" unicode="&#x2175;" vert-adv-y="2263" 
d="M881 -53h-349l-294 1128h274l190 -891h9l196 891h267zM1192 1241v279h270v-279h-270zM1198 -53v1128h258v-1128h-258z" />
    <glyph glyph-name="Korea1.457" unicode="&#x2176;" vert-adv-y="2263" 
d="M1419 1241v279h262v-279h-262zM1425 -53v1128h250v-1128h-250zM1047 1241v279h262v-279h-262zM1053 -53v1128h250v-1128h-250zM748 -53h-332l-283 1128h266l179 -891h8l180 891h258z" />
    <glyph glyph-name="Korea1.458" unicode="&#x2177;" vert-adv-y="2263" 
d="M1563 1241v279h237v-279h-237zM1569 -53v1128h225v-1128h-225zM1247 1241v279h238v-279h-238zM1253 -53v1128h226v-1128h-226zM500 225l166 850h252l-273 -1128h-299l-278 1128h260l164 -850h8zM932 1241v279h237v-279h-237zM938 -53v1128h225v-1128h-225z" />
    <glyph glyph-name="Korea1.459" unicode="&#x2178;" vert-adv-y="2263" 
d="M1677 1083l-317 -544l328 -592h-283l-221 422l-213 -422h-277l336 592l-321 544h288l209 -385l205 385h266zM383 1241v279h270v-279h-270zM389 -53v1136h258v-1136h-258z" />
    <glyph glyph-name="Korea1.460" unicode="&#x2179;" vert-adv-y="2263" 
d="M1438 1083l-338 -544l348 -592h-318l-206 415l-209 -415h-301l356 592l-342 544h324l192 -376l203 376h291z" />
    <glyph glyph-name="Korea1.171" unicode="&#x2190;" vert-adv-y="2263" 
d="M1649 764v-121h-1133l154 -258l-31 -35l-426 355l426 354l31 -35l-154 -260h1133z" />
    <glyph glyph-name="Korea1.172" unicode="&#x2191;" vert-adv-y="2263" 
d="M991 0h-119v1133l-260 -154l-34 31l354 426l354 -426l-35 -31l-260 154v-1133z" />
    <glyph glyph-name="Korea1.170" unicode="&#x2192;" vert-adv-y="2263" 
d="M213 643v121h1133l-154 260l31 35l426 -354l-426 -355l-31 35l154 258h-1133z" />
    <glyph glyph-name="Korea1.173" unicode="&#x2193;" vert-adv-y="2263" 
d="M872 1407h119v-1131l260 152l35 -31l-354 -426l-354 426l34 31l260 -152v1131z" />
    <glyph glyph-name="Korea1.174" unicode="&#x2194;" vert-adv-y="2263" 
d="M424 643l154 -258l-31 -35l-426 355l426 354l31 -35l-154 -260h1016l-154 260l31 35l426 -354l-426 -355l-31 35l154 258h-1016z" />
    <glyph glyph-name="Korea1.247" unicode="&#x2195;" vert-adv-y="2263" 
d="M1251 979l-260 154v-857l260 152l35 -31l-354 -426l-354 426l34 31l260 -152v857l-260 -154l-34 31l354 426l354 -426z" />
    <glyph glyph-name="Korea1.250" unicode="&#x2196;" vert-adv-y="2263" 
d="M1655 63l-84 -86l-1192 1190l-74 -290l-47 -3l-51 551l551 -51l-2 -47l-291 -74z" />
    <glyph glyph-name="Korea1.248" unicode="&#x2197;" vert-adv-y="2263" 
d="M291 -23l-84 86l1190 1190l-291 74l-2 47l551 51l-51 -551l-48 3l-73 290z" />
    <glyph glyph-name="Korea1.251" unicode="&#x2198;" vert-adv-y="2263" 
d="M207 1346l84 84l1192 -1190l76 290l47 5l51 -553l-553 51l4 47l291 76z" />
    <glyph glyph-name="Korea1.249" unicode="&#x2199;" vert-adv-y="2263" 
d="M1573 1430l84 -84l-1192 -1190l291 -76l4 -47l-553 -51l51 553l47 -5l76 -290z" />
    <glyph glyph-name="Korea1.8868" unicode="&#x21b0;" horiz-adv-x="1986" vert-adv-y="2263" 
 />
    <glyph glyph-name="Korea1.8865" unicode="&#x21b1;" horiz-adv-x="1986" vert-adv-y="2263" 
 />
    <glyph glyph-name="Korea1.8864" unicode="&#x21b2;" horiz-adv-x="1986" vert-adv-y="2263" 
 />
    <glyph glyph-name="Korea1.8869" unicode="&#x21b3;" horiz-adv-x="1986" vert-adv-y="2263" 
 />
    <glyph glyph-name="Korea1.8867" unicode="&#x21b4;" horiz-adv-x="1986" vert-adv-y="2263" 
 />
    <glyph glyph-name="Korea1.8884" unicode="&#x21bc;" horiz-adv-x="1986" vert-adv-y="2263" 
 />
    <glyph glyph-name="Korea1.8885" unicode="&#x21c0;" horiz-adv-x="1986" vert-adv-y="2263" 
 />
    <glyph glyph-name="Korea1.8896" unicode="&#x21c4;" horiz-adv-x="1986" vert-adv-y="2263" 
 />
    <glyph glyph-name="Korea1.8897" unicode="&#x21c5;" horiz-adv-x="1986" vert-adv-y="2263" 
 />
    <glyph glyph-name="Korea1.8816" unicode="&#x21cd;" horiz-adv-x="1986" vert-adv-y="2263" 
 />
    <glyph glyph-name="Korea1.8815" unicode="&#x21cf;" horiz-adv-x="1986" vert-adv-y="2263" 
 />
    <glyph glyph-name="Korea1.8814" unicode="&#x21d0;" horiz-adv-x="1986" vert-adv-y="2263" 
 />
    <glyph glyph-name="Korea1.8854" unicode="&#x21d1;" horiz-adv-x="1986" vert-adv-y="2263" 
 />
    <glyph glyph-name="Korea1.195" unicode="&#x21d2;" vert-adv-y="2263" 
d="M-10 360v123h1583l129 127l-129 129h-1583v123h1460l-221 221l88 86l557 -559l-557 -561l-88 90l223 221h-1462z" />
    <glyph glyph-name="Korea1.8855" unicode="&#x21d3;" horiz-adv-x="1986" vert-adv-y="2263" 
 />
    <glyph glyph-name="Korea1.196" unicode="&#x21d4;" vert-adv-y="2263" 
d="M1319 1169l557 -559l-557 -561l-88 90l223 221h-1042l223 -221l-88 -90l-557 561l557 559l88 -86l-221 -221h1038l-221 221zM1575 483l129 127l-129 129h-1284l-129 -129l129 -127h1284z" />
    <glyph glyph-name="Korea1.9190" unicode="&#x21e0;" horiz-adv-x="1986" vert-adv-y="2263" 
 />
    <glyph glyph-name="Korea1.9192" unicode="&#x21e1;" horiz-adv-x="1986" vert-adv-y="2263" 
 />
    <glyph glyph-name="Korea1.9191" unicode="&#x21e2;" horiz-adv-x="1986" vert-adv-y="2263" 
 />
    <glyph glyph-name="Korea1.9193" unicode="&#x21e3;" horiz-adv-x="1986" vert-adv-y="2263" 
 />
    <glyph glyph-name="Korea1.9198" unicode="&#x21e6;" horiz-adv-x="1986" vert-adv-y="2263" 
 />
    <glyph glyph-name="Korea1.9200" unicode="&#x21e7;" horiz-adv-x="1986" vert-adv-y="2263" 
 />
    <glyph glyph-name="Korea1.9199" unicode="&#x21e8;" horiz-adv-x="1986" vert-adv-y="2263" 
 />
    <glyph glyph-name="Korea1.9201" unicode="&#x21e9;" horiz-adv-x="1986" vert-adv-y="2263" 
 />
    <glyph glyph-name="Korea1.197" unicode="&#x2200;" vert-adv-y="2263" 
d="M1012 498l100 301h-346l100 -301q45 -129 74 -228q31 111 72 228zM817 -53l-555 1476h285l143 -405h498l145 405h269l-549 -1476h-236z" />
    <glyph glyph-name="Korea1.151" unicode="&#x2202;" horiz-adv-x="1122" vert-adv-y="2263" 
d="M481 1493q242 0 407 -199t165 -552t-167 -559t-411 -206q-205 -1 -317 131t-111 326q0 194 128 341t332 147t312 -170h2q27 298 -145 462q-88 84 -220 84t-276 -79l-71 161q193 113 372 113zM498 166q116 0 198 116t103 277q-25 72 -94 125q-71 53 -171 53t-175 -92
t-75 -217t61 -194q61 -68 153 -68z" />
    <glyph glyph-name="Korea1.198" unicode="&#x2203;" vert-adv-y="2263" 
d="M465 1423h950v-1476h-964v217h704v432h-647v213h647v397h-690v217z" />
    <glyph glyph-name="Korea1.8715" unicode="&#x2206;" horiz-adv-x="1986" vert-adv-y="2263" 
 />
    <glyph glyph-name="Korea1.152" unicode="&#x2207;" vert-adv-y="2263" 
d="M932 197l559 899h-1122zM117 1233h1630l-815 -1290z" />
    <glyph glyph-name="Korea1.184" unicode="&#x2208;" vert-adv-y="2263" 
d="M1628 721v-176h-1194q47 -262 379 -262h819v-177h-813q-291 0 -441 148t-149 374t147 366t437 141h819v-177h-819q-168 0 -262 -68t-115 -169h1192z" />
    <glyph glyph-name="Korea1.8749" unicode="&#x2209;" horiz-adv-x="1986" vert-adv-y="2263" 
 />
    <glyph glyph-name="Korea1.185" unicode="&#x220b;" vert-adv-y="2263" 
d="M233 545v176h1192q-20 102 -114 170t-262 67h-820v177h820q291 -1 437 -141t146 -366t-149 -374q-150 -147 -441 -148h-813v177h820q332 0 378 262h-1194z" />
    <glyph glyph-name="Korea1.8750" unicode="&#x220c;" horiz-adv-x="1986" vert-adv-y="2263" 
 />
    <glyph glyph-name="Korea1.213" unicode="&#x220f;" horiz-adv-x="1370" vert-adv-y="2263" 
d="M1079 1200v-1319h-262v1319h-264v-1319h-262v1319h-254v223h1296v-223h-254z" />
    <glyph glyph-name="Korea1.212" unicode="&#x2211;" horiz-adv-x="1153" vert-adv-y="2263" 
d="M117 1423h970v-221h-647l400 -522l-404 -512h666v-221h-985v184l428 547l-428 567v178z" />
    <glyph glyph-name="Korea1.8726" unicode="&#x2213;" horiz-adv-x="1986" vert-adv-y="2263" 
 />
    <glyph glyph-name="Korea1.178" unicode="&#x221a;" horiz-adv-x="1175" vert-adv-y="2263" 
d="M1212 1638l-469 -1886h-165l-322 862l-154 -63l-47 115l316 131l278 -811h6l392 1652h165z" />
    <glyph glyph-name="Korea1.180" unicode="&#x221d;" vert-adv-y="2263" 
d="M1393 260q-229 0 -389 260q-70 -118 -158 -188t-236 -70t-262 102t-115 281q0 177 114 281t259 104q144 0 236 -73t162 -189q152 262 389 262q114 0 235 -88l-69 -104q-98 66 -166 65q-103 0 -177 -62t-145 -196q69 -133 143 -195t166 -62t174 44l43 -115
q-102 -57 -204 -57zM616 393q195 0 324 252q-133 254 -324 254q-110 0 -178 -71q-68 -70 -68 -184t65 -182q64 -68 181 -69z" />
    <glyph glyph-name="Korea1.136" unicode="&#x221e;" horiz-adv-x="1269" vert-adv-y="2263" 
d="M315 475q104 0 215 135q-113 147 -213 148q-59 0 -92 -39t-32 -105q-1 -139 122 -139zM954 756q-61 0 -110 -37t-105 -105q106 -141 213 -141q59 0 92 39t33 104q0 140 -123 140zM292 315q-120 0 -195 82t-74 217q0 135 77 219q78 83 219 82q77 -1 141 -31t95 -61t80 -92
q71 92 147 138t196 46q120 1 194 -81t75 -218q0 -136 -78 -218q-78 -83 -219 -83q-78 0 -141 30t-95 62t-79 91q-70 -92 -147 -138q-76 -46 -196 -45z" />
    <glyph glyph-name="Korea1.8717" unicode="&#x221f;" horiz-adv-x="1986" vert-adv-y="2263" 
 />
    <glyph glyph-name="Korea1.148" unicode="&#x2220;" vert-adv-y="2263" 
d="M1556 158v-158h-1253v109l963 1122l125 -107l-840 -966h1005z" />
    <glyph glyph-name="Korea1.8738" unicode="&#x2222;" horiz-adv-x="1986" vert-adv-y="2263" 
 />
    <glyph glyph-name="Korea1.8719" unicode="&#x2225;" horiz-adv-x="1986" vert-adv-y="2263" 
 />
    <glyph glyph-name="Korea1.8720" unicode="&#x2226;" horiz-adv-x="1986" vert-adv-y="2263" 
 />
    <glyph glyph-name="Korea1.192" unicode="&#x2227;" vert-adv-y="2263" 
d="M987 1210l602 -1161l-123 -61l-534 1036l-539 -1036l-123 61l602 1161h115z" />
    <glyph glyph-name="Korea1.193" unicode="&#x2228;" vert-adv-y="2263" 
d="M1466 1229l123 -60l-602 -1163h-115l-602 1163l123 60l539 -1039z" />
    <glyph glyph-name="Korea1.191" unicode="&#x2229;" vert-adv-y="2263" 
d="M422 715q0 293 140 441t369 149q228 -1 367 -149t140 -441v-813h-189v823q0 203 -86 303q-85 100 -233 100t-234 -100t-86 -303v-823h-188v813z" />
    <glyph glyph-name="Korea1.190" unicode="&#x222a;" vert-adv-y="2263" 
d="M420 1305h188v-824q0 -201 88 -299t232 -98t233 98q90 98 90 299v824h189v-813q0 -291 -148 -441q-148 -149 -370 -149q-223 0 -363 144q-139 144 -139 435v824z" />
    <glyph glyph-name="Korea1.182" unicode="&#x222b;" horiz-adv-x="706" vert-adv-y="2263" 
d="M248 1090q0 507 332 507q71 0 108 -14l-24 -158q-45 8 -72 9q-66 0 -94 -58q-49 -68 -49 -262t14 -512q14 -317 14 -487q0 -270 -76 -383q-78 -135 -243 -135q-98 0 -131 24l26 164q45 -12 88 -12t80 43q55 82 55 272t-14 518q-14 326 -14 484z" />
    <glyph glyph-name="Korea1.183" unicode="&#x222c;" horiz-adv-x="1259" vert-adv-y="2263" 
d="M250 1079q0 508 330 508q75 0 110 -14l-24 -158q-45 8 -72 8q-66 0 -94 -55q-51 -70 -51 -264t14 -508q14 -313 14 -481q0 -272 -74 -383q-78 -135 -243 -135q-100 0 -133 24l26 164q45 -12 88 -12t80 43q57 80 57 272t-14 512q-14 322 -14 479zM1096 1423
q-146 1 -146 -319q0 -194 16 -508q16 -313 15 -481q0 -270 -76 -383q-76 -135 -243 -135q-94 0 -132 24l29 164q41 -12 76 -12q147 0 147 336q0 169 -15 491t-15 479q0 295 116 424q76 84 215 84q72 0 109 -14l-25 -158q-45 8 -71 8z" />
    <glyph glyph-name="Korea1.211" unicode="&#x222e;" vert-adv-y="2263" 
d="M1161 1368q-45 0 -86 -122t-65 -337q116 -12 188 -91t62 -204q-10 -124 -92 -202t-197 -95q-70 -546 -279 -546q-125 0 -188 120l90 54q41 -84 104 -84q47 0 89 123t63 335q-108 17 -174 95t-56 196t86 195q75 76 181 98q71 555 285 555q122 0 188 -129l-96 -43
q-37 82 -103 82zM977 379q76 19 125 81t57 151t-35 155t-120 82q-8 -106 -12 -238t-15 -231zM881 840q-143 -53 -160 -228q-8 -88 29 -149t106 -82q6 80 10 201t15 258z" />
    <glyph glyph-name="Korea1.137" unicode="&#x2234;" horiz-adv-x="1269" vert-adv-y="2263" 
d="M613 1167q61 0 109 -46t48 -108q0 -61 -47 -111t-109 -50t-110 49q-49 49 -49 111t48 109q48 46 110 46zM1157 295q0 -61 -48 -109t-113 -47q-66 0 -110 46q-44 45 -44 109t46 112t108 47t112 -49t49 -109zM428 294q0 -64 -46 -109q-46 -46 -110 -46t-111 47
q-48 46 -48 108t48 110q47 48 111 48t110 -46q46 -48 46 -112z" />
    <glyph glyph-name="Korea1.181" unicode="&#x2235;" horiz-adv-x="1200" vert-adv-y="2263" 
d="M440 296q0 62 43 104t109 42t108 -42t43 -105q0 -63 -45 -109t-106 -47q-61 0 -107 47q-45 48 -45 110zM80 1037q0 59 46 105t108 46t106 -44q43 -44 43 -106t-43 -107q-42 -44 -106 -44t-109 45t-45 105zM793 1036q0 60 47 106q46 46 110 46t105 -44t41 -106t-41 -107
q-41 -44 -105 -44t-110 45q-47 45 -47 104z" />
    <glyph glyph-name="Korea1.8321" unicode="&#x2237;" horiz-adv-x="1986" vert-adv-y="2263" 
 />
    <glyph glyph-name="Korea1.113" unicode="&#x223c;" vert-adv-y="2263" 
d="M1210 502q-144 0 -290 78t-275 77q-129 0 -217 -129l-84 56q49 78 136 135t173 57q147 0 290 -78t274 -77q131 0 219 129l84 -56q-48 -78 -136 -135t-174 -57z" />
    <glyph glyph-name="Korea1.179" unicode="&#x223d;" vert-adv-y="2263" 
d="M1321 1030q161 0 269 -114t108 -272t-108 -272t-267 -114q-125 0 -250 92l66 107q90 -66 189 -66t166 73t67 178t-67 181t-170 76t-187 -74t-171 -260q-52 -93 -82 -126q-89 -100 -138 -124q-112 -55 -209 -55q-150 0 -261 102q-110 102 -110 282t109 283
q111 103 247 103t269 -86l-68 -108q-97 59 -191 59t-160 -69q-66 -70 -67 -182q0 -112 65 -180t177 -67q151 0 263 159q38 54 51 80t42 79q158 315 418 315z" />
    <glyph glyph-name="Korea1.8500" unicode="&#x2243;" horiz-adv-x="1986" vert-adv-y="2263" 
 />
    <glyph glyph-name="Korea1.8499" unicode="&#x2245;" horiz-adv-x="1986" vert-adv-y="2263" 
 />
    <glyph glyph-name="Korea1.8501" unicode="&#x2248;" horiz-adv-x="1986" vert-adv-y="2263" 
 />
    <glyph glyph-name="Korea1.8739" unicode="&#x2250;" horiz-adv-x="1986" vert-adv-y="2263" 
 />
    <glyph glyph-name="Korea1.8723" unicode="&#x2251;" horiz-adv-x="1986" vert-adv-y="2263" 
 />
    <glyph glyph-name="Korea1.154" unicode="&#x2252;" horiz-adv-x="1269" vert-adv-y="2263" 
d="M76 406v141h1118v-141h-1118zM76 737v140h1118v-140h-1118zM158 1108q0 51 38 90t89 39t89 -39t38 -90t-38 -88t-89 -37t-89 37t-38 88zM834 170q0 51 37 89q39 38 91 38t89 -37t37 -90t-38 -91q-36 -38 -88 -38t-91 39q-37 39 -37 90z" />
    <glyph glyph-name="Korea1.8722" unicode="&#x2253;" horiz-adv-x="1986" vert-adv-y="2263" 
 />
    <glyph glyph-name="Korea1.8753" unicode="&#x225a;" horiz-adv-x="1986" vert-adv-y="2263" 
 />
    <glyph glyph-name="Korea1.133" unicode="&#x2260;" horiz-adv-x="1269" vert-adv-y="2263" 
d="M152 764v215h579l152 233h204l-151 -233h182v-215h-325l-140 -217h465v-215h-608l-148 -230h-204l147 230h-153v215h297l139 217h-436z" />
    <glyph glyph-name="Korea1.153" unicode="&#x2261;" horiz-adv-x="1269" vert-adv-y="2263" 
d="M1192 248h-1116v145h1116v-145zM1192 887h-1116v145h1116v-145zM1192 567h-1116v150h1116v-150z" />
    <glyph glyph-name="Korea1.8734" unicode="&#x2262;" horiz-adv-x="1986" vert-adv-y="2263" 
 />
    <glyph glyph-name="Korea1.134" unicode="&#x2264;" horiz-adv-x="1269" vert-adv-y="2263" 
d="M150 272h970v-217h-970v217zM1120 301l-983 424v242l983 424v-254l-714 -285v-2l714 -293v-256z" />
    <glyph glyph-name="Korea1.135" unicode="&#x2265;" horiz-adv-x="1269" vert-adv-y="2263" 
d="M137 272h971v-217h-971v217zM1120 725l-983 -424v256l715 293v2l-715 285v254l983 -424v-242z" />
    <glyph glyph-name="Korea1.8724" unicode="&#x2266;" horiz-adv-x="1986" vert-adv-y="2263" 
 />
    <glyph glyph-name="Korea1.8725" unicode="&#x2267;" horiz-adv-x="1986" vert-adv-y="2263" 
 />
    <glyph glyph-name="Korea1.8745" unicode="&#x226e;" horiz-adv-x="1986" vert-adv-y="2263" 
 />
    <glyph glyph-name="Korea1.8746" unicode="&#x226f;" horiz-adv-x="1986" vert-adv-y="2263" 
 />
    <glyph glyph-name="Korea1.8481" unicode="&#x2270;" horiz-adv-x="1986" vert-adv-y="2263" 
 />
    <glyph glyph-name="Korea1.8482" unicode="&#x2271;" horiz-adv-x="1986" vert-adv-y="2263" 
 />
    <glyph glyph-name="Korea1.8483" unicode="&#x2272;" horiz-adv-x="1986" vert-adv-y="2263" 
 />
    <glyph glyph-name="Korea1.8484" unicode="&#x2273;" horiz-adv-x="1986" vert-adv-y="2263" 
 />
    <glyph glyph-name="Korea1.8489" unicode="&#x2276;" horiz-adv-x="1986" vert-adv-y="2263" 
 />
    <glyph glyph-name="Korea1.8490" unicode="&#x2277;" horiz-adv-x="1986" vert-adv-y="2263" 
 />
    <glyph glyph-name="Korea1.8491" unicode="&#x2279;" horiz-adv-x="1986" vert-adv-y="2263" 
 />
    <glyph glyph-name="Korea1.8475" unicode="&#x227a;" horiz-adv-x="1986" vert-adv-y="2263" 
 />
    <glyph glyph-name="Korea1.8476" unicode="&#x227b;" horiz-adv-x="1986" vert-adv-y="2263" 
 />
    <glyph glyph-name="Korea1.8479" unicode="&#x2280;" horiz-adv-x="1986" vert-adv-y="2263" 
 />
    <glyph glyph-name="Korea1.8480" unicode="&#x2281;" horiz-adv-x="1986" vert-adv-y="2263" 
 />
    <glyph glyph-name="Korea1.188" unicode="&#x2282;" vert-adv-y="2263" 
d="M1632 1143v-180h-819q-203 -1 -298 -89t-95 -232t95 -234q95 -88 298 -89h819v-180h-813q-291 -1 -441 143t-149 366q-1 222 145 358t439 137h819z" />
    <glyph glyph-name="Korea1.189" unicode="&#x2283;" vert-adv-y="2263" 
d="M229 942v180h824q291 0 435 -136t144 -358t-149 -366q-150 -143 -441 -143h-813v180h824q201 0 295 89q94 90 94 234t-93 232t-296 88h-824z" />
    <glyph glyph-name="Korea1.8748" unicode="&#x2284;" horiz-adv-x="1986" vert-adv-y="2263" 
 />
    <glyph glyph-name="Korea1.8747" unicode="&#x2285;" horiz-adv-x="1986" vert-adv-y="2263" 
 />
    <glyph glyph-name="Korea1.186" unicode="&#x2286;" vert-adv-y="2263" 
d="M1632 1229v-180h-819q-205 0 -299 -79t-94 -208q0 -299 393 -299h819v-180h-813q-293 0 -441 134t-148 345t144 339q146 128 439 128h819zM1628 131v-180h-1327v180h1327z" />
    <glyph glyph-name="Korea1.187" unicode="&#x2287;" vert-adv-y="2263" 
d="M233 -49v180h1328v-180h-1328zM229 1049v180h824q293 0 436 -128t143 -339t-148 -345t-442 -134h-813v180h824q389 0 389 299q0 131 -92 209t-297 78h-824z" />
    <glyph glyph-name="Korea1.8486" unicode="&#x228a;" horiz-adv-x="1986" vert-adv-y="2263" 
 />
    <glyph glyph-name="Korea1.8488" unicode="&#x228b;" horiz-adv-x="1986" vert-adv-y="2263" 
 />
    <glyph glyph-name="Korea1.8727" unicode="&#x2295;" horiz-adv-x="1986" vert-adv-y="2263" 
 />
    <glyph glyph-name="Korea1.8728" unicode="&#x2296;" horiz-adv-x="1986" vert-adv-y="2263" 
 />
    <glyph glyph-name="Korea1.8729" unicode="&#x2297;" horiz-adv-x="1986" vert-adv-y="2263" 
 />
    <glyph glyph-name="Korea1.227" unicode="&#x2299;" vert-adv-y="2263" 
d="M1249 612q0 -133 -92 -225t-223 -92t-225 93t-95 224q0 130 94 224t226 94q131 0 223 -92t92 -226zM1597 610q0 274 -196 471q-197 197 -471 197t-470 -196t-196 -471t196 -471t471 -196t471 196q195 196 195 470zM1747 612q0 -338 -239 -576q-238 -238 -574 -239
q-336 0 -577 240q-241 239 -241 575t241 576t577 240t574 -240q238 -238 239 -576z" />
    <glyph glyph-name="Korea1.8742" unicode="&#x22a3;" horiz-adv-x="1986" vert-adv-y="2263" 
 />
    <glyph glyph-name="Korea1.8503" unicode="&#x22a4;" horiz-adv-x="1986" vert-adv-y="2263" 
 />
    <glyph glyph-name="Korea1.149" unicode="&#x22a5;" vert-adv-y="2263" 
d="M1585 158v-158h-1306v158h569v1022h164v-1022h573z" />
    <glyph glyph-name="Korea1.8751" unicode="&#x22bb;" horiz-adv-x="1986" vert-adv-y="2263" 
 />
    <glyph glyph-name="Korea1.8752" unicode="&#x22bc;" horiz-adv-x="1986" vert-adv-y="2263" 
 />
    <glyph glyph-name="Korea1.8477" unicode="&#x22ce;" horiz-adv-x="1986" vert-adv-y="2263" 
 />
    <glyph glyph-name="Korea1.8478" unicode="&#x22cf;" horiz-adv-x="1986" vert-adv-y="2263" 
 />
    <glyph glyph-name="Korea1.8492" unicode="&#x22da;" horiz-adv-x="1986" vert-adv-y="2263" 
 />
    <glyph glyph-name="Korea1.8493" unicode="&#x22db;" horiz-adv-x="1986" vert-adv-y="2263" 
 />
    <glyph glyph-name="Korea1.8320" unicode="&#x22ee;" horiz-adv-x="1986" vert-adv-y="1863" 
 />
    <glyph glyph-name="Korea1.8754" unicode="&#x2306;" horiz-adv-x="1986" vert-adv-y="2263" 
 />
    <glyph glyph-name="Korea1.150" unicode="&#x2312;" vert-adv-y="2263" 
d="M934 1393q-268 0 -391 -219h-158q174 334 543 334t549 -334h-160q-115 219 -383 219z" />
    <glyph glyph-name="Korea1.8731" unicode="&#x2314;" horiz-adv-x="1986" vert-adv-y="2263" 
 />
    <glyph glyph-name="Korea1.733" unicode="&#x2460;" vert-adv-y="2263" 
d="M1835 625q0 -391 -257 -647t-648 -257q-391 0 -646 256q-255 255 -255 647t256 650t646 258t647 -258t257 -649zM1688 627q0 332 -214 548t-542 216t-542 -216t-214 -548t214 -548t542 -216t542 216t214 548zM1100 84h-217v840l-234 -136l-108 177l366 200h193v-1081z
" />
    <glyph glyph-name="Korea1.734" unicode="&#x2461;" vert-adv-y="2263" 
d="M1083 883v12q0 45 -43 73t-106 27q-119 0 -213 -153l-164 110q127 233 375 234q162 0 266 -72t105 -219v-14q0 -166 -152 -306l-332 -303h516v-180h-784v178l405 383q57 53 87 99t35 70t5 61zM1835 625q0 -391 -257 -647t-648 -257q-391 0 -646 256q-255 255 -255 647
t256 650t646 258t647 -258t257 -649zM1688 627q0 332 -214 548t-542 216t-542 -216t-214 -548t214 -548t542 -216t542 216t214 548z" />
    <glyph glyph-name="Korea1.735" unicode="&#x2462;" vert-adv-y="2263" 
d="M920 1186q162 0 255 -78t93 -195v-14q0 -182 -154 -242q100 -14 157 -78q56 -65 56 -163v-15q-1 -143 -109 -234t-300 -91q-104 0 -202 34t-165 89l108 161q129 -96 259 -96q188 0 188 139v11q0 82 -46 116t-157 33h-137v187h115q100 0 137 34t37 109v8q0 45 -39 72
t-96 26q-105 1 -195 -79l-147 112q123 154 342 154zM1835 625q0 -391 -257 -647t-648 -257q-391 0 -646 256q-255 255 -255 647t256 650t646 258t647 -258t257 -649zM1688 627q0 332 -214 548t-542 216t-542 -216t-214 -548t214 -548t542 -216t542 216t214 548z" />
    <glyph glyph-name="Korea1.736" unicode="&#x2463;" vert-adv-y="2263" 
d="M977 805h211v-318h139v-174h-139v-221h-211v221h-526v136l469 725h235l-446 -687h268v318zM1835 625q0 -391 -257 -647t-648 -257q-391 0 -646 256q-255 255 -255 647t256 650t646 258t647 -258t257 -649zM1688 627q0 332 -214 548t-542 216t-542 -216t-214 -548
t214 -548t542 -216t542 216t214 548z" />
    <glyph glyph-name="Korea1.737" unicode="&#x2464;" vert-adv-y="2263" 
d="M1124 424v16q0 166 -172 166q-123 0 -209 -86h-133l39 635h625v-178h-436l-13 -248q82 49 215 49q132 0 220 -94t88 -240v-24q0 -146 -100 -252t-319 -106q-218 0 -368 122l103 170q123 -100 286 -100q78 0 126 47t48 123zM1835 625q0 -391 -257 -647t-648 -257
q-391 0 -646 256q-255 255 -255 647t256 650t646 258t647 -258t257 -649zM1688 627q0 332 -214 548t-542 216t-542 -216t-214 -548t214 -548t542 -216t542 216t214 548z" />
    <glyph glyph-name="Korea1.738" unicode="&#x2465;" vert-adv-y="2263" 
d="M748 453v-21q0 -74 56 -116t132 -42q164 0 164 181v12q0 154 -176 154t-176 -168zM974 985q-120 0 -171 -62t-58 -198q27 39 89 65t135 25q156 0 252 -94t96 -252v-33q0 -156 -96 -259q-95 -103 -281 -103t-295 112t-108 342v86q0 302 106 436t336 134q170 0 283 -76
l-72 -176q-96 53 -216 53zM1835 625q0 -391 -257 -647t-648 -257q-391 0 -646 256q-255 255 -255 647t256 650t646 258t647 -258t257 -649zM1688 627q0 332 -214 548t-542 216t-542 -216t-214 -548t214 -548t542 -216t542 216t214 548z" />
    <glyph glyph-name="Korea1.739" unicode="&#x2466;" vert-adv-y="2263" 
d="M563 954v183h778v-168l-405 -910h-231l409 895h-551zM1835 625q0 -391 -257 -647t-648 -257q-391 0 -646 256q-255 255 -255 647t256 650t646 258t647 -258t257 -649zM1688 627q0 332 -214 548t-542 216t-542 -216t-214 -548t214 -548t542 -216t542 216t214 548z" />
    <glyph glyph-name="Korea1.740" unicode="&#x2467;" vert-adv-y="2263" 
d="M549 373v24q0 86 50 154t116 88q-66 31 -105 95t-39 122v14q1 138 95 222t262 84t262 -84t94 -222v-14q0 -56 -37 -118t-100 -99q68 -18 115 -86t47 -156v-24q-1 -135 -99 -221t-281 -86t-282 86q-98 86 -98 221zM774 399v-12q0 -127 155 -127t154 127v12q0 66 -40 101
q-41 35 -113 35q-72 -1 -114 -37t-42 -99zM803 868v-16q0 -51 33 -85t92 -34t95 34t36 85v16q0 121 -129 121q-66 0 -96 -34t-31 -87zM1835 625q0 -391 -257 -647t-648 -257q-391 0 -646 256q-255 255 -255 647t256 650t646 258t647 -258t257 -649zM1688 627q0 332 -214 548
t-542 216t-542 -216t-214 -548t214 -548t542 -216t542 216t214 548z" />
    <glyph glyph-name="Korea1.741" unicode="&#x2468;" vert-adv-y="2263" 
d="M1128 805v20q0 74 -56 116t-132 42q-164 0 -164 -180v-12q0 -154 176 -154t176 168zM911 444q-160 0 -256 94t-96 250v33q0 156 96 259q95 104 281 104t295 -112t108 -343v-86q1 -307 -107 -438t-335 -131q-170 0 -283 76l72 176q96 -54 215 -54t171 62t58 198
q-59 -88 -219 -88zM1835 625q0 -391 -257 -647t-648 -257q-391 0 -646 256q-255 255 -255 647t256 650t646 258t647 -258t257 -649zM1688 627q0 332 -214 548t-542 216t-542 -216t-214 -548t214 -548t542 -216t542 216t214 548z" />
    <glyph glyph-name="Korea1.742" unicode="&#x2469;" vert-adv-y="2263" 
d="M772 84h-215v836l-192 -123l-103 178l318 186h192v-1077zM1188 981q-61 0 -91 -58t-30 -214v-168q0 -156 30 -214q30 -59 91 -59t91 58t30 215v168q0 156 -30 214t-91 58zM1188 68q-174 0 -251 112t-77 359v172q0 247 77 359t251 112t251 -113t77 -358v-172
q0 -247 -77 -359t-251 -112zM1835 625q0 -391 -257 -647t-648 -257q-391 0 -646 256q-255 255 -255 647t256 650t646 258t647 -258t257 -649zM1688 627q0 332 -214 548t-542 216t-542 -216t-214 -548t214 -548t542 -216t542 216t214 548z" />
    <glyph glyph-name="Korea1.743" unicode="&#x246a;" vert-adv-y="2263" 
d="M1376 84h-215v836l-192 -123l-103 178l318 186h192v-1077zM836 84h-215v836l-193 -123l-102 178l317 186h193v-1077zM1835 625q0 -391 -257 -647t-648 -257q-391 0 -646 256q-255 255 -255 647t256 650t646 258t647 -258t257 -649zM1688 627q0 332 -214 548t-542 216
t-542 -216t-214 -548t214 -548t542 -216t542 216t214 548z" />
    <glyph glyph-name="Korea1.744" unicode="&#x246b;" vert-adv-y="2263" 
d="M772 84h-215v836l-192 -123l-103 178l318 186h192v-1077zM1229 897v10q0 31 -29 51t-70 21q-80 0 -157 -135l-162 117q66 131 140 173q75 42 171 44q162 0 247 -79t85 -184v-14q0 -53 -33 -123t-59 -108t-90 -119l-211 -279h420v-188q207 217 207 546t-214 545t-542 216
t-542 -216t-214 -548t214 -548t546 -216t543 221h-670v186l260 359q98 135 129 187t31 81zM1835 625q0 -391 -257 -647t-648 -257q-391 0 -646 256q-255 255 -255 647t256 650t646 258t647 -258t257 -649z" />
    <glyph glyph-name="Korea1.745" unicode="&#x246c;" vert-adv-y="2263" 
d="M772 84h-215v836l-192 -123l-103 178l318 186h192v-971l109 162q143 -96 254 -96q152 0 151 139v11q0 84 -44 116t-150 33h-97v186h86q84 0 119 34t35 108v8q0 43 -29 72t-82 28q-111 0 -178 -80l-147 113q65 78 139 116t206 38t218 -75t86 -198v-14q0 -80 -41 -147
t-121 -93q100 -16 160 -81t61 -158v-15q0 -149 -92 -239q-91 -90 -289 -90t-354 122v-106zM1688 627q0 332 -214 548t-542 216t-542 -216t-214 -548t214 -548t542 -216t542 216t214 548zM1835 625q0 -391 -257 -647t-648 -257q-391 0 -646 256q-255 255 -255 647t256 650
t646 258t647 -258t257 -649z" />
    <glyph glyph-name="Korea1.746" unicode="&#x246d;" vert-adv-y="2263" 
d="M772 84h-215v836l-192 -123l-103 178l318 186h192v-1077zM1208 797h207v-326h146v-166h-146v-221h-207v221h-420v127l375 733h228l-357 -694h174v326zM1835 625q0 -391 -257 -647t-648 -257q-391 0 -646 256q-255 255 -255 647t256 650t646 258t647 -258t257 -649z
M1688 627q0 332 -214 548t-542 216t-542 -216t-214 -548t214 -548t542 -216t542 216t214 548z" />
    <glyph glyph-name="Korea1.747" unicode="&#x246e;" vert-adv-y="2263" 
d="M772 84h-215v836l-192 -123l-103 178l318 186h192v-1077zM1278 438v17q0 77 -33 115t-119 38t-143 -88h-139l35 635h551v-172h-359l-12 -254q12 6 42 25q36 24 120 24q129 0 205 -92t77 -227v-25q0 -162 -91 -267q-92 -105 -284 -105t-337 122l102 168q129 -100 250 -100
q67 0 101 51t34 135zM1835 625q0 -391 -257 -647t-648 -257q-391 0 -646 256q-255 255 -255 647t256 650t646 258t647 -258t257 -649zM1688 627q0 332 -214 548t-542 216t-542 -216t-214 -548t214 -548t542 -216t542 216t214 548z" />
    <glyph glyph-name="Korea1.8791" unicode="&#x246f;" horiz-adv-x="1986" vert-adv-y="2263" 
 />
    <glyph glyph-name="Korea1.8792" unicode="&#x2470;" horiz-adv-x="1986" vert-adv-y="2263" 
 />
    <glyph glyph-name="Korea1.8793" unicode="&#x2471;" horiz-adv-x="1986" vert-adv-y="2263" 
 />
    <glyph glyph-name="Korea1.8794" unicode="&#x2472;" horiz-adv-x="1986" vert-adv-y="2263" 
 />
    <glyph glyph-name="Korea1.8795" unicode="&#x2473;" horiz-adv-x="1986" vert-adv-y="2263" 
 />
    <glyph glyph-name="Korea1.827" unicode="&#x2474;" vert-adv-y="2263" 
d="M1126 51h-229v891l-248 -143l-114 186l389 213h202v-1147zM1825 596q0 -442 -230 -743h-168q217 322 218 733v94q-1 402 -218 721h168q229 -305 230 -731v-74zM219 680v-94q0 -412 217 -733h-168q-229 301 -229 743v74q0 426 229 731h168q-217 -319 -217 -721z" />
    <glyph glyph-name="Korea1.828" unicode="&#x2475;" vert-adv-y="2263" 
d="M1096 897v12q0 47 -46 77t-112 30q-125 0 -227 -162l-172 117q133 248 397 248q172 0 283 -76t110 -234v-14q0 -174 -162 -324l-352 -321h547v-191h-830v189l429 405q117 109 130 178q5 27 5 66zM1825 596q0 -442 -230 -743h-168q217 322 218 733v94q-1 402 -218 721h168
q229 -305 230 -731v-74zM219 680v-94q0 -412 217 -733h-168q-229 301 -229 743v74q0 426 229 731h168q-217 -319 -217 -721z" />
    <glyph glyph-name="Korea1.829" unicode="&#x2476;" vert-adv-y="2263" 
d="M924 1219q172 0 271 -82t99 -207v-15q0 -195 -164 -256q106 -14 166 -84t60 -172v-16q0 -152 -115 -248t-319 -96q-111 0 -215 36t-172 93l114 172q135 -102 273 -102q201 0 200 147v12q0 86 -49 122t-166 36h-145v197h121q106 0 145 37t39 116v9q0 48 -41 76t-102 28
q-113 0 -205 -86l-158 121q135 162 363 162zM1825 596q0 -442 -230 -743h-168q217 322 218 733v94q-1 402 -218 721h168q229 -305 230 -731v-74zM219 680v-94q0 -412 217 -733h-168q-229 301 -229 743v74q0 426 229 731h168q-217 -319 -217 -721z" />
    <glyph glyph-name="Korea1.830" unicode="&#x2477;" vert-adv-y="2263" 
d="M1006 815h223v-336h147v-184h-147v-236h-223v236h-560v143l498 768h250l-473 -727h285v336zM1825 596q0 -442 -230 -743h-168q217 322 218 733v94q-1 402 -218 721h168q229 -305 230 -731v-74zM219 680v-94q0 -412 217 -733h-168q-229 301 -229 743v74q0 426 229 731h168
q-217 -319 -217 -721z" />
    <glyph glyph-name="Korea1.831" unicode="&#x2478;" vert-adv-y="2263" 
d="M1135 414v16q0 84 -46 130t-137 46q-133 0 -221 -92h-141l41 674h661v-189h-461l-14 -262q92 51 213 51q158 0 250 -99t92 -255v-26q0 -154 -106 -267t-338 -113t-391 132l108 180q129 -106 305 -107q84 1 134 51t51 130zM1825 596q0 -442 -230 -743h-168
q217 322 218 733v94q-1 402 -218 721h168q229 -305 230 -731v-74zM219 680v-94q0 -412 217 -733h-168q-229 301 -229 743v74q0 426 229 731h168q-217 -319 -217 -721z" />
    <glyph glyph-name="Korea1.832" unicode="&#x2479;" vert-adv-y="2263" 
d="M739 442v-22q-1 -78 59 -122t146 -44t127 46t41 144v13q0 163 -186 163t-187 -178zM1341 459v-35q0 -164 -101 -274t-299 -109q-197 0 -311 118t-114 363v92q0 318 114 460t355 143q178 0 299 -80l-76 -187q-102 56 -229 56t-181 -66t-61 -209q29 41 93 68t143 26
q164 0 266 -100t102 -266zM1825 596q0 -442 -230 -743h-168q217 322 218 733v94q-1 402 -218 721h168q229 -305 230 -731v-74zM219 680v-94q0 -412 217 -733h-168q-229 301 -229 743v74q0 426 229 731h168q-217 -319 -217 -721z" />
    <glyph glyph-name="Korea1.833" unicode="&#x247a;" vert-adv-y="2263" 
d="M537 975v194h823v-178l-428 -964h-246l434 948h-583zM1825 596q0 -442 -230 -743h-168q217 322 218 733v94q-1 402 -218 721h168q229 -305 230 -731v-74zM219 680v-94q0 -412 217 -733h-168q-229 301 -229 743v74q0 426 229 731h168q-217 -319 -217 -721z" />
    <glyph glyph-name="Korea1.834" unicode="&#x247b;" vert-adv-y="2263" 
d="M526 358v25q0 90 54 164t122 94q-70 33 -110 101t-41 128v15q0 147 99 235q100 88 278 88t277 -89t100 -234v-15q0 -61 -39 -126t-107 -103q72 -20 122 -93t50 -165v-25q0 -143 -103 -234t-298 -91q-196 0 -300 91t-104 234zM764 387v-14q0 -135 165 -135t165 135v14
q0 70 -43 106q-43 35 -120 35t-122 -36t-45 -105zM795 883v-17q-1 -55 35 -91t98 -36t100 37q39 37 39 90v17q0 129 -137 129q-70 0 -102 -36t-33 -93zM1825 596q0 -442 -230 -743h-168q217 322 218 733v94q-1 402 -218 721h168q229 -305 230 -731v-74zM219 680v-94
q0 -412 217 -733h-168q-229 301 -229 743v74q0 426 229 731h168q-217 -319 -217 -721z" />
    <glyph glyph-name="Korea1.835" unicode="&#x247c;" vert-adv-y="2263" 
d="M1137 815v23q1 78 -59 122t-146 44t-127 -46t-41 -145v-12q0 -164 186 -164t187 178zM896 252q126 0 181 66t62 208q-63 -92 -231 -92t-271 98q-102 98 -102 267v35q0 164 101 274t299 109q197 0 311 -118t114 -364v-92q0 -324 -114 -463t-355 -139q-178 0 -299 80
l76 186q102 -55 228 -55zM1825 596q0 -442 -230 -743h-168q217 322 218 733v94q-1 402 -218 721h168q229 -305 230 -731v-74zM219 680v-94q0 -412 217 -733h-168q-229 301 -229 743v74q0 426 229 731h168q-217 -319 -217 -721z" />
    <glyph glyph-name="Korea1.836" unicode="&#x247d;" vert-adv-y="2263" 
d="M772 51h-215v887l-192 -131l-103 188l318 199h192v-1143zM1188 1001q-63 0 -92 -61t-29 -227v-176q0 -165 29 -227t92 -62t92 61t29 228v176q0 166 -29 227t-92 61zM1188 35q-174 0 -251 120t-77 377v185q0 258 77 378q77 119 251 119t251 -120t77 -377v-185
q0 -258 -77 -378t-251 -119zM1825 596q0 -442 -230 -743h-168q217 322 218 733v94q-1 402 -218 721h168q229 -305 230 -731v-74zM219 680v-94q0 -412 217 -733h-168q-229 301 -229 743v74q0 426 229 731h168q-217 -319 -217 -721z" />
    <glyph glyph-name="Korea1.837" unicode="&#x247e;" vert-adv-y="2263" 
d="M1376 51h-215v887l-192 -131l-103 188l318 199h192v-1143zM836 51h-215v887l-193 -131l-102 188l317 199h193v-1143zM1825 596q0 -442 -230 -743h-168q217 322 218 733v94q-1 402 -218 721h168q229 -305 230 -731v-74zM219 680v-94q0 -412 217 -733h-168
q-229 301 -229 743v74q0 426 229 731h168q-217 -319 -217 -721z" />
    <glyph glyph-name="Korea1.838" unicode="&#x247f;" vert-adv-y="2263" 
d="M772 51h-215v885l-192 -129l-103 188l318 199h192v-1143zM1229 913v11q0 32 -29 54t-70 21q-82 0 -157 -143l-162 125q70 140 131 177q87 52 180 52q162 0 247 -83t85 -195v-14q0 -58 -33 -132t-59 -112t-90 -127l-211 -297h420v-199h-672v197l260 381q98 141 129 197
t31 87zM1825 596q0 -442 -230 -743h-168q217 322 218 733v94q-1 402 -218 721h168q229 -305 230 -731v-74zM219 680v-94q0 -412 217 -733h-168q-229 301 -229 743v74q0 426 229 731h168q-217 -319 -217 -721z" />
    <glyph glyph-name="Korea1.839" unicode="&#x2480;" vert-adv-y="2263" 
d="M1825 596q0 -442 -230 -743h-168q217 322 218 733v94q-1 402 -218 721h168q229 -305 230 -731v-74zM219 680v-94q0 -412 217 -733h-168q-229 301 -229 743v74q0 426 229 731h168q-217 -319 -217 -721zM772 51h-215v887l-192 -131l-103 188l318 199h192v-1030l109 172
q143 -102 254 -103q152 0 151 148v12q0 88 -44 123t-150 35h-97v197h86q84 0 119 36t35 115v8q0 45 -29 76t-82 31q-111 0 -178 -86l-147 121q63 81 137 121t207 40t219 -78t86 -210v-15q0 -85 -41 -155t-121 -99q100 -16 160 -85t61 -169v-16q0 -158 -92 -253
q-93 -95 -291 -95t-352 129v-113z" />
    <glyph glyph-name="Korea1.840" unicode="&#x2481;" vert-adv-y="2263" 
d="M772 51h-215v887l-192 -131l-103 188l318 199h192v-1143zM1208 807h207v-346h146v-174h-146v-236h-207v236h-420v133l375 778h228l-357 -737h174v346zM1825 596q0 -442 -230 -743h-168q217 322 218 733v94q-1 402 -218 721h168q229 -305 230 -731v-74zM219 680v-94
q0 -412 217 -733h-168q-229 301 -229 743v74q0 426 229 731h168q-217 -319 -217 -721z" />
    <glyph glyph-name="Korea1.841" unicode="&#x2482;" vert-adv-y="2263" 
d="M772 53h-215v885l-192 -131l-103 190l318 197h192v-1141zM1278 428v16q0 82 -33 123t-119 41t-143 -94h-139l35 674h551v-182h-359l-12 -271q21 10 37 24q16 13 31 16q16 3 32 8t62 5q129 0 205 -97t77 -240v-27q0 -172 -91 -284q-92 -112 -284 -112t-337 130l102 178
q68 -55 123 -81t125 -26q69 -1 103 55t34 144zM1825 596q0 -442 -230 -743h-168q217 322 218 733v94q-1 402 -218 721h168q229 -305 230 -731v-74zM219 680v-94q0 -412 217 -733h-168q-229 301 -229 743v74q0 426 229 731h168q-217 -319 -217 -721z" />
    <glyph glyph-name="Korea1.9042" unicode="&#x2483;" horiz-adv-x="1986" vert-adv-y="2263" 
 />
    <glyph glyph-name="Korea1.9043" unicode="&#x2484;" horiz-adv-x="1986" vert-adv-y="2263" 
 />
    <glyph glyph-name="Korea1.9044" unicode="&#x2485;" horiz-adv-x="1986" vert-adv-y="2263" 
 />
    <glyph glyph-name="Korea1.9045" unicode="&#x2486;" horiz-adv-x="1986" vert-adv-y="2263" 
 />
    <glyph glyph-name="Korea1.9046" unicode="&#x2487;" horiz-adv-x="1986" vert-adv-y="2263" 
 />
    <glyph glyph-name="Korea1.801" unicode="&#x249c;" vert-adv-y="2263" 
d="M1073 559h-180q-69 -1 -95 -23t-26 -77v-19q0 -29 29 -46t71 -17q123 0 162 43t39 139zM838 178q-118 0 -203 62q-86 62 -86 190v47q0 276 340 277h184v8q0 82 -29 108t-112 27q-125 0 -240 -84l-110 164q164 121 340 121t276 -75t100 -214v-616h-208v100
q-26 -59 -80 -87t-172 -28zM1825 596q0 -442 -230 -743h-168q217 322 218 733v94q-1 402 -218 721h168q229 -305 230 -731v-74zM219 680v-94q0 -412 217 -733h-168q-229 301 -229 743v74q0 426 229 731h168q-217 -319 -217 -721z" />
    <glyph glyph-name="Korea1.802" unicode="&#x249d;" vert-adv-y="2263" 
d="M1171 436v88q0 115 -37 168q-38 53 -123 53t-141 -50t-57 -146v-164q0 -68 61 -116q60 -48 138 -48q78 -1 118 57t41 158zM811 139v-104h-219v1231h229v-410q70 82 223 82q348 0 349 -377v-155q-1 -176 -93 -280t-260 -103q-84 1 -144 33t-83 83h-2zM1825 596
q0 -442 -230 -743h-168q217 322 218 733v94q-1 402 -218 721h168q229 -305 230 -731v-74zM219 680v-94q0 -412 217 -733h-168q-229 301 -229 743v74q0 426 229 731h168q-217 -319 -217 -721z" />
    <glyph glyph-name="Korea1.803" unicode="&#x249e;" vert-adv-y="2263" 
d="M952 1083q194 0 324 -108l-109 -170q-100 78 -219 78q-80 -1 -128 -53t-48 -144v-113q0 -102 51 -155t127 -53q143 0 240 75l106 -174q-141 -104 -344 -104t-306 108t-103 301v115q0 188 107 293q108 104 302 104zM1825 596q0 -442 -230 -743h-168q217 322 218 733v94
q-1 402 -218 721h168q229 -305 230 -731v-74zM219 680v-94q0 -412 217 -733h-168q-229 301 -229 743v74q0 426 229 731h168q-217 -319 -217 -721z" />
    <glyph glyph-name="Korea1.804" unicode="&#x249f;" vert-adv-y="2263" 
d="M713 541v-88q0 -103 41 -159q42 -56 120 -56t138 64q59 65 59 149v153q0 64 -54 108q-53 44 -137 44t-126 -58t-41 -157zM1079 51v103h-2q-57 -115 -237 -115t-264 95t-84 278v161q0 177 95 279t252 102t224 -80v408h229v-1231h-213zM1825 596q0 -442 -230 -743h-168
q217 322 218 733v94q-1 402 -218 721h168q229 -305 230 -731v-74zM219 680v-94q0 -412 217 -733h-168q-229 301 -229 743v74q0 426 229 731h168q-217 -319 -217 -721z" />
    <glyph glyph-name="Korea1.805" unicode="&#x24a0;" vert-adv-y="2263" 
d="M944 168q-422 0 -422 416v82q0 209 120 315t293 106t282 -100t108 -287v-161h-582q0 -176 191 -177q159 0 278 78l95 -166q-163 -106 -363 -106zM743 717h371v33q0 53 -47 98t-137 45t-138 -47t-49 -113v-16zM1825 596q0 -442 -230 -743h-168q217 322 218 733v94
q-1 402 -218 721h168q229 -305 230 -731v-74zM219 680v-94q0 -412 217 -733h-168q-229 301 -229 743v74q0 426 229 731h168q-217 -319 -217 -721z" />
    <glyph glyph-name="Korea1.806" unicode="&#x24a1;" vert-adv-y="2263" 
d="M766 2v694h-139v193h139v84q0 125 81 197t207 73q126 0 195 -24l-41 -187q-49 16 -104 16q-107 1 -107 -96v-63h215v-193h-215v-694h-231zM1825 596q0 -442 -230 -743h-168q217 322 218 733v94q-1 402 -218 721h168q229 -305 230 -731v-74zM219 680v-94q0 -412 217 -733
h-168q-229 301 -229 743v74q0 426 229 731h168q-217 -319 -217 -721z" />
    <glyph glyph-name="Korea1.807" unicode="&#x24a2;" vert-adv-y="2263" 
d="M754 819v-71q0 -109 43 -165q43 -57 119 -57t132 64q58 64 58 149v150q0 59 -50 100t-136 41q-166 0 -166 -211zM1104 338v86q-62 -92 -232 -92t-256 86t-86 287v147q0 178 96 280t248 103q154 0 228 -82v68h229v-873q0 -190 -98 -288t-322 -97q-80 0 -170 30t-151 68
l102 185q39 -28 104 -52t111 -24q197 0 197 168zM1825 596q0 -442 -230 -743h-168q217 322 218 733v94q-1 402 -218 721h168q229 -305 230 -731v-74zM219 680v-94q0 -412 217 -733h-168q-229 301 -229 743v74q0 426 229 731h168q-217 -319 -217 -721z" />
    <glyph glyph-name="Korea1.808" unicode="&#x24a3;" vert-adv-y="2263" 
d="M1059 928q125 0 210 -84t85 -250v-569h-228v526q0 100 -33 139q-34 39 -112 39q-172 0 -172 -199v-505h-231v1230h231v-426q80 99 250 99zM1825 596q0 -442 -230 -743h-168q217 322 218 733v94q-1 402 -218 721h168q229 -305 230 -731v-74zM219 680v-94q0 -412 217 -733
h-168q-229 301 -229 743v74q0 426 229 731h168q-217 -319 -217 -721z" />
    <glyph glyph-name="Korea1.809" unicode="&#x24a4;" vert-adv-y="2263" 
d="M811 1006v245h236v-245h-236zM813 14v885h229v-885h-229zM1825 596q0 -442 -230 -743h-168q217 322 218 733v94q-1 402 -218 721h168q229 -305 230 -731v-74zM219 680v-94q0 -412 217 -733h-168q-229 301 -229 743v74q0 426 229 731h168q-217 -319 -217 -721z" />
    <glyph glyph-name="Korea1.810" unicode="&#x24a5;" vert-adv-y="2263" 
d="M1102 885v-643q0 -147 -72 -217t-229 -70q-96 0 -172 27l35 182q76 -14 116 -14q93 0 92 104v631h230zM870 991v246h238v-246h-238zM1825 596q0 -442 -230 -743h-168q217 322 218 733v94q-1 402 -218 721h168q229 -305 230 -731v-74zM219 680v-94q0 -412 217 -733h-168
q-229 301 -229 743v74q0 426 229 731h168q-217 -319 -217 -721z" />
    <glyph glyph-name="Korea1.811" unicode="&#x24a6;" vert-adv-y="2263" 
d="M821 29h-225v1231h225v-709l303 367h289l-342 -379l344 -510h-289l-213 340l-92 -101v-239zM1825 596q0 -442 -230 -743h-168q217 322 218 733v94q-1 402 -218 721h168q229 -305 230 -731v-74zM219 680v-94q0 -412 217 -733h-168q-229 301 -229 743v74q0 426 229 731h168
q-217 -319 -217 -721z" />
    <glyph glyph-name="Korea1.812" unicode="&#x24a7;" vert-adv-y="2263" 
d="M813 12v1231h229v-1231h-229zM1825 596q0 -442 -230 -743h-168q217 322 218 733v94q-1 402 -218 721h168q229 -305 230 -731v-74zM219 680v-94q0 -412 217 -733h-168q-229 301 -229 743v74q0 426 229 731h168q-217 -319 -217 -721z" />
    <glyph glyph-name="Korea1.813" unicode="&#x24a8;" vert-adv-y="2263" 
d="M1264 1073q118 0 202 -90t84 -256v-555h-231v490q0 116 -33 160t-98 44q-131 0 -131 -186v-508h-230v494q1 116 -31 158t-97 42t-99 -36t-33 -123v-535h-231v889h217v-119q47 131 219 131q76 0 136 -37t87 -88q85 125 269 125zM1825 596q0 -442 -230 -743h-168
q217 322 218 733v94q-1 402 -218 721h168q229 -305 230 -731v-74zM219 680v-94q0 -412 217 -733h-168q-229 301 -229 743v74q0 426 229 731h168q-217 -319 -217 -721z" />
    <glyph glyph-name="Korea1.814" unicode="&#x24a9;" vert-adv-y="2263" 
d="M1030 1073q139 0 222 -86t83 -248v-567h-227v524q0 102 -34 142t-111 39q-172 0 -172 -201v-504h-232v889h215v-98q42 57 98 83t158 27zM1825 596q0 -442 -230 -743h-168q217 322 218 733v94q-1 402 -218 721h168q229 -305 230 -731v-74zM219 680v-94q0 -412 217 -733
h-168q-229 301 -229 743v74q0 426 229 731h168q-217 -319 -217 -721z" />
    <glyph glyph-name="Korea1.815" unicode="&#x24aa;" vert-adv-y="2263" 
d="M737 596q0 -225 196 -225t195 225v68q0 227 -196 227t-195 -227v-68zM934 1090q192 0 310 -106q116 -106 116 -298v-106q0 -194 -117 -302t-311 -108t-308 108t-114 302v106q0 190 116 297t308 107zM1825 596q0 -442 -230 -743h-168q217 322 218 733v94q-1 402 -218 721
h168q229 -305 230 -731v-74zM219 680v-94q0 -412 217 -733h-168q-229 301 -229 743v74q0 426 229 731h168q-217 -319 -217 -721z" />
    <glyph glyph-name="Korea1.816" unicode="&#x24ab;" vert-adv-y="2263" 
d="M1176 713v88q0 101 -43 161t-129 60t-136 -53t-49 -142v-165q1 -60 57 -112t137 -52t122 58t41 157zM1397 684q-1 -195 -97 -290t-256 -95t-219 96v-430h-229v1233h219v-88q57 104 235 104q348 0 347 -376v-154zM1825 596q0 -442 -230 -743h-168q217 322 218 733v94
q-1 402 -218 721h168q229 -305 230 -731v-74zM219 680v-94q0 -412 217 -733h-168q-229 301 -229 743v74q0 426 229 731h168q-217 -319 -217 -721z" />
    <glyph glyph-name="Korea1.817" unicode="&#x24ac;" vert-adv-y="2263" 
d="M717 801v-88q0 -103 42 -159t120 -56t137 64t59 149v163q0 58 -51 100t-138 42t-128 -58t-41 -157zM1067 -35v430q-59 -96 -237 -96t-256 94q-79 94 -78 279v162q0 176 95 278t249 102t227 -79v63h229v-1233h-229zM1825 596q0 -442 -230 -743h-168q217 322 218 733v94
q-1 402 -218 721h168q229 -305 230 -731v-74zM219 680v-94q0 -412 217 -733h-168q-229 301 -229 743v74q0 426 229 731h168q-217 -319 -217 -721z" />
    <glyph glyph-name="Korea1.818" unicode="&#x24ad;" vert-adv-y="2263" 
d="M1118 850q-64 0 -122 -47t-58 -117v-536h-229v886h219v-116q81 138 239 136q74 0 127 -20l-63 -215q-49 29 -113 29zM1825 596q0 -442 -230 -743h-168q217 322 218 733v94q-1 402 -218 721h168q229 -305 230 -731v-74zM219 680v-94q0 -412 217 -733h-168
q-229 301 -229 743v74q0 426 229 731h168q-217 -319 -217 -721z" />
    <glyph glyph-name="Korea1.819" unicode="&#x24ae;" vert-adv-y="2263" 
d="M928 362q133 0 133 70v8q0 59 -164 93q-165 33 -235 97t-70 191v19q0 112 92 180t276 68t320 -84l-106 -166q-104 55 -230 55t-127 -59v-9q0 -33 29 -51t123 -39q176 -37 250 -99t73 -192v-14q0 -110 -94 -186t-264 -76q-221 0 -377 111l98 174q53 -37 130 -64t143 -27z
M1825 596q0 -442 -230 -743h-168q217 322 218 733v94q-1 402 -218 721h168q229 -305 230 -731v-74zM219 680v-94q0 -412 217 -733h-168q-229 301 -229 743v74q0 426 229 731h168q-217 -319 -217 -721z" />
    <glyph glyph-name="Korea1.820" unicode="&#x24af;" vert-adv-y="2263" 
d="M750 313v465h-134v197h134v217h227v-217h217v-197h-217v-430q0 -45 20 -61q19 -17 73 -17t108 29l34 -182q-74 -43 -182 -43q-280 -1 -280 239zM1825 596q0 -442 -230 -743h-168q217 322 218 733v94q-1 402 -218 721h168q229 -305 230 -731v-74zM219 680v-94
q0 -412 217 -733h-168q-229 301 -229 743v74q0 426 229 731h168q-217 -319 -217 -721z" />
    <glyph glyph-name="Korea1.821" unicode="&#x24b0;" vert-adv-y="2263" 
d="M852 135q-131 0 -219 84t-88 250v580h231v-533q0 -100 36 -140t110 -40t122 45t48 154v514h231v-891h-215v94q-86 -117 -256 -117zM1825 596q0 -442 -230 -743h-168q217 322 218 733v94q-1 402 -218 721h168q229 -305 230 -731v-74zM219 680v-94q0 -412 217 -733h-168
q-229 301 -229 743v74q0 426 229 731h168q-217 -319 -217 -721z" />
    <glyph glyph-name="Korea1.822" unicode="&#x24b1;" vert-adv-y="2263" 
d="M1083 143h-307l-274 879h250l180 -682h4l188 682h240zM1825 596q0 -442 -230 -743h-168q217 322 218 733v94q-1 402 -218 721h168q229 -305 230 -731v-74zM219 680v-94q0 -412 217 -733h-168q-229 301 -229 743v74q0 426 229 731h168q-217 -319 -217 -721z" />
    <glyph glyph-name="Korea1.823" unicode="&#x24b2;" vert-adv-y="2263" 
d="M805 143h-260l-217 879h245l113 -637h2l150 637h209l133 -637h2l127 637h229l-211 -879h-270l-121 570h-2zM1825 596q0 -442 -230 -743h-168q217 322 218 733v94q-1 402 -218 721h168q229 -305 230 -731v-74zM219 680v-94q0 -412 217 -733h-168q-229 301 -229 743v74
q0 426 229 731h168q-217 -319 -217 -721z" />
    <glyph glyph-name="Korea1.824" unicode="&#x24b3;" vert-adv-y="2263" 
d="M1333 1044l-258 -423l273 -455h-277l-145 270l-148 -270h-258l264 446l-260 432h279l137 -266l141 266h252zM1825 596q0 -442 -230 -743h-168q217 322 218 733v94q-1 402 -218 721h168q229 -305 230 -731v-74zM219 680v-94q0 -412 217 -733h-168q-229 301 -229 743v74
q0 426 229 731h168q-217 -319 -217 -721z" />
    <glyph glyph-name="Korea1.825" unicode="&#x24b4;" vert-adv-y="2263" 
d="M518 1171h258l176 -610h6l193 610h240l-473 -1243l-218 72l123 311zM1825 596q0 -442 -230 -743h-168q217 322 218 733v94q-1 402 -218 721h168q229 -305 230 -731v-74zM219 680v-94q0 -412 217 -733h-168q-229 301 -229 743v74q0 426 229 731h168q-217 -319 -217 -721z
" />
    <glyph glyph-name="Korea1.826" unicode="&#x24b5;" vert-adv-y="2263" 
d="M1278 1065v-191l-408 -495h435v-201h-738v154l432 526h-401v207h680zM1825 596q0 -442 -230 -743h-168q217 322 218 733v94q-1 402 -218 721h168q229 -305 230 -731v-74zM219 680v-94q0 -412 217 -733h-168q-229 301 -229 743v74q0 426 229 731h168q-217 -319 -217 -721z
" />
    <glyph glyph-name="Korea1.8388" unicode="&#x24b6;" horiz-adv-x="1986" vert-adv-y="2263" 
 />
    <glyph glyph-name="Korea1.8389" unicode="&#x24b7;" horiz-adv-x="1986" vert-adv-y="2263" 
 />
    <glyph glyph-name="Korea1.8390" unicode="&#x24b8;" horiz-adv-x="1986" vert-adv-y="2263" 
 />
    <glyph glyph-name="Korea1.8391" unicode="&#x24b9;" horiz-adv-x="1986" vert-adv-y="2263" 
 />
    <glyph glyph-name="Korea1.8392" unicode="&#x24ba;" horiz-adv-x="1986" vert-adv-y="2263" 
 />
    <glyph glyph-name="Korea1.8393" unicode="&#x24bb;" horiz-adv-x="1986" vert-adv-y="2263" 
 />
    <glyph glyph-name="Korea1.8394" unicode="&#x24bc;" horiz-adv-x="1986" vert-adv-y="2263" 
 />
    <glyph glyph-name="Korea1.8395" unicode="&#x24bd;" horiz-adv-x="1986" vert-adv-y="2263" 
 />
    <glyph glyph-name="Korea1.8396" unicode="&#x24be;" horiz-adv-x="1986" vert-adv-y="2263" 
 />
    <glyph glyph-name="Korea1.8397" unicode="&#x24bf;" horiz-adv-x="1986" vert-adv-y="2263" 
 />
    <glyph glyph-name="Korea1.8398" unicode="&#x24c0;" horiz-adv-x="1986" vert-adv-y="2263" 
 />
    <glyph glyph-name="Korea1.8399" unicode="&#x24c1;" horiz-adv-x="1986" vert-adv-y="2263" 
 />
    <glyph glyph-name="Korea1.8400" unicode="&#x24c2;" horiz-adv-x="1986" vert-adv-y="2263" 
 />
    <glyph glyph-name="Korea1.8401" unicode="&#x24c3;" horiz-adv-x="1986" vert-adv-y="2263" 
 />
    <glyph glyph-name="Korea1.8402" unicode="&#x24c4;" horiz-adv-x="1986" vert-adv-y="2263" 
 />
    <glyph glyph-name="Korea1.8403" unicode="&#x24c5;" horiz-adv-x="1986" vert-adv-y="2263" 
 />
    <glyph glyph-name="Korea1.8404" unicode="&#x24c6;" horiz-adv-x="1986" vert-adv-y="2263" 
 />
    <glyph glyph-name="Korea1.8405" unicode="&#x24c7;" horiz-adv-x="1986" vert-adv-y="2263" 
 />
    <glyph glyph-name="Korea1.8406" unicode="&#x24c8;" horiz-adv-x="1986" vert-adv-y="2263" 
 />
    <glyph glyph-name="Korea1.8407" unicode="&#x24c9;" horiz-adv-x="1986" vert-adv-y="2263" 
 />
    <glyph glyph-name="Korea1.8408" unicode="&#x24ca;" horiz-adv-x="1986" vert-adv-y="2263" 
 />
    <glyph glyph-name="Korea1.8409" unicode="&#x24cb;" horiz-adv-x="1986" vert-adv-y="2263" 
 />
    <glyph glyph-name="Korea1.8410" unicode="&#x24cc;" horiz-adv-x="1986" vert-adv-y="2263" 
 />
    <glyph glyph-name="Korea1.8411" unicode="&#x24cd;" horiz-adv-x="1986" vert-adv-y="2263" 
 />
    <glyph glyph-name="Korea1.8412" unicode="&#x24ce;" horiz-adv-x="1986" vert-adv-y="2263" 
 />
    <glyph glyph-name="Korea1.8413" unicode="&#x24cf;" horiz-adv-x="1986" vert-adv-y="2263" 
 />
    <glyph glyph-name="Korea1.707" unicode="&#x24d0;" vert-adv-y="2263" 
d="M1835 625q0 -391 -257 -647t-648 -257q-391 0 -646 256q-255 255 -255 647t256 650t646 258t647 -258t257 -649zM1688 627q0 332 -214 548t-542 216t-542 -216t-214 -548t214 -548t542 -216t542 216t214 548zM1065 563h-170q-63 0 -89 -20t-26 -74v-18q0 -27 28 -43
t66 -17q117 0 154 40t37 132zM842 205q-112 0 -192 58q-81 58 -81 179v43q0 262 322 263h174v8q0 78 -28 102t-105 25q-117 0 -227 -80l-105 155q156 113 322 113t261 -71t95 -201v-582h-199v96q-25 -57 -74 -83q-51 -25 -163 -25z" />
    <glyph glyph-name="Korea1.708" unicode="&#x24d1;" vert-adv-y="2263" 
d="M1835 625q0 -391 -257 -647t-648 -257q-391 0 -646 256q-255 255 -255 647t256 650t646 258t647 -258t257 -649zM1688 627q0 332 -214 548t-542 216t-542 -216t-214 -548t214 -548t542 -216t542 216t214 548zM1153 449v81q0 109 -36 159t-116 50t-133 -47t-53 -137v-156
q0 -63 57 -108t129 -45q152 0 152 203zM813 168v-98h-207v1161h217v-387q63 78 211 78q328 0 328 -357v-145q0 -166 -87 -264t-245 -99q-80 0 -138 31t-77 80h-2z" />
    <glyph glyph-name="Korea1.709" unicode="&#x24d2;" vert-adv-y="2263" 
d="M1835 625q0 -391 -257 -647t-648 -257q-391 0 -646 256q-255 255 -255 647t256 650t646 258t647 -258t257 -649zM1688 627q0 332 -214 548t-542 216t-542 -216t-214 -548t214 -548t542 -216t542 216t214 548zM563 682q-1 178 101 276t284 99q182 0 307 -103l-102 -159
q-92 74 -207 73q-76 0 -121 -49t-45 -137v-107q0 -96 49 -146t119 -50q135 0 228 72l100 -164q-134 -99 -326 -99t-290 102t-97 283v109z" />
    <glyph glyph-name="Korea1.710" unicode="&#x24d3;" vert-adv-y="2263" 
d="M1835 625q0 -391 -257 -647t-648 -257q-391 0 -646 256q-255 255 -255 647t256 650t646 258t647 -258t257 -649zM1688 627q0 332 -214 548t-542 216t-542 -216t-214 -548t214 -548t542 -216t542 216t214 548zM723 547v-82q0 -203 151 -203q76 0 132 60t55 141v145
q0 58 -51 100q-52 42 -130 42t-118 -54t-39 -149zM1069 86v96h-2q-55 -108 -225 -108q-328 1 -328 352v152q0 166 90 263t238 97t211 -76v385h217v-1161h-201z" />
    <glyph glyph-name="Korea1.711" unicode="&#x24d4;" vert-adv-y="2263" 
d="M1835 625q0 -391 -257 -647t-648 -257q-391 0 -646 256q-255 255 -255 647t256 650t646 258t647 -258t257 -649zM1688 627q0 332 -214 548t-542 216t-542 -216t-214 -548t214 -548t542 -216t542 216t214 548zM942 195q-397 0 -397 391v78q0 197 112 297q113 100 277 100
t266 -95t103 -270v-153h-549q0 -166 180 -166q147 0 262 74l88 -156q-154 -100 -342 -100zM754 713h350v30q0 51 -45 93t-130 43q-85 0 -130 -45t-45 -107v-14z" />
    <glyph glyph-name="Korea1.712" unicode="&#x24d5;" vert-adv-y="2263" 
d="M776 37v655h-131v182h131v78q0 119 76 188q76 68 194 68t185 -22l-37 -176q-53 14 -109 14q-92 0 -92 -90v-60h203v-182h-203v-655h-217zM1835 625q0 -391 -257 -647t-648 -257q-391 0 -646 256q-255 255 -255 647t256 650t646 258t647 -258t257 -649zM1688 627
q0 332 -214 548t-542 216t-542 -216t-214 -548t214 -548t542 -216t542 216t214 548z" />
    <glyph glyph-name="Korea1.713" unicode="&#x24d6;" vert-adv-y="2263" 
d="M1835 625q0 -391 -257 -647t-648 -257q-391 0 -646 256q-255 255 -255 647t256 650t646 258t647 -258t257 -649zM1688 627q0 332 -214 548t-542 216t-542 -216t-214 -548t214 -548t542 -216t542 216t214 548zM754 807v-68q0 -102 41 -155q41 -54 111 -54t125 60
q54 60 54 141v141q0 54 -47 94t-127 40q-157 0 -157 -199zM1083 352v82q-59 -88 -219 -88t-240 81t-81 271v140q0 166 90 263t235 97t213 -76v64h217v-824q0 -178 -92 -270t-303 -92q-76 0 -162 28t-143 64l98 174q34 -28 96 -50t107 -21q184 -1 184 157z" />
    <glyph glyph-name="Korea1.714" unicode="&#x24d7;" vert-adv-y="2263" 
d="M1835 625q0 -391 -257 -647t-648 -257q-391 0 -646 256q-255 255 -255 647t256 650t646 258t647 -258t257 -649zM1688 627q0 332 -214 548t-542 216t-542 -216t-214 -548t214 -548t542 -216t542 216t214 548zM1053 911q119 -1 199 -79t79 -236v-537h-213v496
q0 96 -32 133t-105 37q-164 0 -164 -188v-478h-217v1162h217v-402q78 92 236 92z" />
    <glyph glyph-name="Korea1.715" unicode="&#x24d8;" vert-adv-y="2263" 
d="M1835 625q0 -391 -257 -647t-648 -257q-391 0 -646 256q-255 255 -255 647t256 650t646 258t647 -258t257 -649zM1688 627q0 332 -214 548t-542 216t-542 -216t-214 -548t214 -548t542 -216t542 216t214 548zM817 985v232h223v-232h-223zM819 49v836h217v-836h-217z" />
    <glyph glyph-name="Korea1.716" unicode="&#x24d9;" vert-adv-y="2263" 
d="M1835 625q0 -391 -257 -647t-648 -257q-391 0 -646 256q-255 255 -255 647t256 650t646 258t647 -258t257 -649zM1688 627q0 332 -214 548t-542 216t-542 -216t-214 -548t214 -548t542 -216t542 216t214 548zM1090 868v-606q0 -139 -68 -205t-217 -65q-96 0 -162 24
l33 172q72 -14 104 -14q92 0 92 98v596h218zM870 969v231h224v-231h-224z" />
    <glyph glyph-name="Korea1.717" unicode="&#x24da;" vert-adv-y="2263" 
d="M1835 625q0 -391 -257 -647t-648 -257q-391 0 -646 256q-255 255 -255 647t256 650t646 258t647 -258t257 -649zM1688 627q0 332 -214 548t-542 216t-542 -216t-214 -548t214 -548t542 -216t542 216t214 548zM831 63h-213v1162h213v-668l287 344h273l-324 -356l326 -482
h-273l-200 322l-89 -96v-226z" />
    <glyph glyph-name="Korea1.718" unicode="&#x24db;" vert-adv-y="2263" 
d="M1835 625q0 -391 -257 -647t-648 -257q-391 0 -646 256q-255 255 -255 647t256 650t646 258t647 -258t257 -649zM1688 627q0 332 -214 548t-542 216t-542 -216t-214 -548t214 -548t542 -216t542 216t214 548zM819 47v1161h217v-1161h-217z" />
    <glyph glyph-name="Korea1.719" unicode="&#x24dc;" vert-adv-y="2263" 
d="M1835 625q0 -391 -257 -647t-648 -257q-391 0 -646 256q-255 255 -255 647t256 650t646 258t647 -258t257 -649zM1688 627q0 332 -214 548t-542 216t-542 -216t-214 -548t214 -548t542 -216t542 216t214 548zM1257 1049q113 0 192 -85t79 -243v-524h-217v462
q0 111 -31 152t-94 41q-123 0 -123 -176v-479h-217v467q0 106 -29 147t-90 41t-94 -33t-33 -117v-505h-217v839h205v-112q45 125 207 125q70 0 127 -35t84 -84q77 119 251 119z" />
    <glyph glyph-name="Korea1.720" unicode="&#x24dd;" vert-adv-y="2263" 
d="M1050 1049q114 0 191 -81q78 -81 78 -235v-536h-213v495q0 96 -32 133t-105 37q-164 0 -164 -188v-477h-217v839h203v-92q39 53 92 79t167 26zM1835 625q0 -391 -257 -647t-648 -257q-391 0 -646 256q-255 255 -255 647t256 650t646 258t647 -258t257 -649zM1688 627
q0 332 -214 548t-542 216t-542 -216t-214 -548t214 -548t542 -216t542 216t214 548z" />
    <glyph glyph-name="Korea1.721" unicode="&#x24de;" vert-adv-y="2263" 
d="M1835 625q0 -391 -257 -647t-648 -257q-391 0 -646 256q-255 255 -255 647t256 650t646 258t647 -258t257 -649zM1688 627q0 332 -214 548t-542 216t-542 -216t-214 -548t214 -548t542 -216t542 216t214 548zM748 598q0 -213 185 -213t185 213v64q0 215 -185 215
t-185 -215v-64zM934 1063q182 0 292 -99t109 -282v-100q0 -182 -109 -284q-110 -101 -292 -101t-291 101t-108 284v100q0 180 108 281q109 100 291 100z" />
    <glyph glyph-name="Korea1.722" unicode="&#x24df;" vert-adv-y="2263" 
d="M1835 625q0 -391 -257 -647t-648 -257q-391 0 -646 256q-255 255 -255 647t256 650t646 258t647 -258t257 -649zM1688 627q0 332 -214 548t-542 216t-542 -216t-214 -548t214 -548t542 -216t542 216t214 548zM1165 707v81q0 94 -40 152q-41 58 -123 57q-82 0 -128 -51
t-45 -133v-156q-1 -55 53 -104t132 -49q151 0 151 203zM1374 678q0 -182 -91 -272t-241 -91q-150 0 -206 91v-406h-218v1163h207v-82q55 99 221 99q328 1 328 -357v-145z" />
    <glyph glyph-name="Korea1.723" unicode="&#x24e0;" vert-adv-y="2263" 
d="M707 788v-81q0 -203 151 -203q76 0 131 60t55 141v153q0 57 -47 95t-130 38q-160 0 -160 -203zM1036 0v406q-55 -90 -222 -90t-242 88q-75 89 -74 264v151q0 166 90 263q90 98 235 98t213 -76v59h217v-1163h-217zM1835 625q0 -391 -257 -647t-648 -257q-391 0 -646 256
q-255 255 -255 647t256 650t646 258t647 -258t257 -649zM1688 627q0 332 -214 548t-542 216t-542 -216t-214 -548t214 -548t542 -216t542 216t214 548z" />
    <glyph glyph-name="Korea1.724" unicode="&#x24e1;" vert-adv-y="2263" 
d="M1835 625q0 -391 -257 -647t-648 -257q-391 0 -646 256q-255 255 -255 647t256 650t646 258t647 -258t257 -649zM1688 627q0 332 -214 548t-542 216t-542 -216t-214 -548t214 -548t542 -216t542 216t214 548zM942 901q77 129 229 129q72 0 117 -18l-59 -203
q-45 27 -107 27t-115 -44q-54 -44 -55 -110v-506h-217v836h207v-111z" />
    <glyph glyph-name="Korea1.725" unicode="&#x24e2;" vert-adv-y="2263" 
d="M925 377q128 0 128 65v9q0 55 -154 87q-153 32 -221 92t-68 181v16q0 104 87 169t260 65t303 -78l-101 -158q-100 53 -218 53t-118 -57v-6q0 -31 27 -49t117 -37q165 -35 235 -94t70 -180v-15q0 -102 -88 -174t-250 -71q-211 0 -356 104l92 164q127 -86 255 -86z
M1835 625q0 -391 -257 -647t-648 -257q-391 0 -646 256q-255 255 -255 647t256 650t646 258t647 -258t257 -649zM1688 627q0 332 -214 548t-542 216t-542 -216t-214 -548t214 -548t542 -216t542 216t214 548z" />
    <glyph glyph-name="Korea1.726" unicode="&#x24e3;" vert-adv-y="2263" 
d="M756 332v438h-127v186h127v205h213v-205h205v-186h-205v-405q0 -41 19 -57q18 -16 68 -17q50 0 103 26l33 -172q-74 -41 -172 -41q-264 1 -264 228zM1835 625q0 -391 -257 -647t-648 -257q-391 0 -646 256q-255 255 -255 647t256 650t646 258t647 -258t257 -649z
M1688 627q0 332 -214 548t-542 216t-542 -216t-214 -548t214 -548t542 -216t542 216t214 548z" />
    <glyph glyph-name="Korea1.727" unicode="&#x24e4;" vert-adv-y="2263" 
d="M852 162q-123 0 -206 79t-83 234v547h217v-502q0 -94 34 -132t104 -38t116 42q45 42 45 147v483h217v-840h-202v88q-82 -108 -242 -108zM1835 625q0 -391 -257 -647t-648 -257q-391 0 -646 256q-255 255 -255 647t256 650t646 258t647 -258t257 -649zM1688 627
q0 332 -214 548t-542 216t-542 -216t-214 -548t214 -548t542 -216t542 216t214 548z" />
    <glyph glyph-name="Korea1.728" unicode="&#x24e5;" vert-adv-y="2263" 
d="M1075 168h-291l-258 829h236l170 -643h4l178 643h225zM1835 625q0 -391 -257 -647t-648 -257q-391 0 -646 256q-255 255 -255 647t256 650t646 258t647 -258t257 -649zM1688 627q0 332 -214 548t-542 216t-542 -216t-214 -548t214 -548t542 -216t542 216t214 548z" />
    <glyph glyph-name="Korea1.729" unicode="&#x24e6;" vert-adv-y="2263" 
d="M813 168h-246l-205 829h232l106 -602h2l142 602h196l125 -602h2l121 602h215l-198 -829h-254l-115 537h-2zM1835 625q0 -391 -257 -647t-648 -257q-391 0 -646 256q-255 255 -255 647t256 650t646 258t647 -258t257 -649zM1688 627q0 332 -214 548t-542 216t-542 -216
t-214 -548t214 -548t542 -216t542 216t214 548z" />
    <glyph glyph-name="Korea1.730" unicode="&#x24e7;" vert-adv-y="2263" 
d="M1311 1020l-244 -399l258 -431h-262l-137 256l-140 -256h-243l250 422l-246 408h264l129 -252l133 252h238zM1835 625q0 -391 -257 -647t-648 -257q-391 0 -646 256q-255 255 -255 647t256 650t646 258t647 -258t257 -649zM1688 627q0 332 -214 548t-542 216t-542 -216
t-214 -548t214 -548t542 -216t542 216t214 548z" />
    <glyph glyph-name="Korea1.731" unicode="&#x24e8;" vert-adv-y="2263" 
d="M543 1137h243l166 -576h6l183 576h225l-446 -1174l-205 68l116 295zM1835 625q0 -391 -257 -647t-648 -257q-391 0 -646 256q-255 255 -255 647t256 650t646 258t647 -258t257 -649zM1688 627q0 332 -214 548t-542 216t-542 -216t-214 -548t214 -548t542 -216t542 216
t214 548z" />
    <glyph glyph-name="Korea1.732" unicode="&#x24e9;" vert-adv-y="2263" 
d="M1260 1040v-180l-386 -467h410v-190h-696v145l407 496h-379v196h644zM1835 625q0 -391 -257 -647t-648 -257q-391 0 -646 256q-255 255 -255 647t256 650t646 258t647 -258t257 -649zM1688 627q0 332 -214 548t-542 216t-542 -216t-214 -548t214 -548t542 -216t542 216
t214 548z" />
    <glyph glyph-name="Korea1.8683" unicode="&#x24eb;" horiz-adv-x="1986" vert-adv-y="2263" 
 />
    <glyph glyph-name="Korea1.8684" unicode="&#x24ec;" horiz-adv-x="1986" vert-adv-y="2263" 
 />
    <glyph glyph-name="Korea1.8685" unicode="&#x24ed;" horiz-adv-x="1986" vert-adv-y="2263" 
 />
    <glyph glyph-name="Korea1.8686" unicode="&#x24ee;" horiz-adv-x="1986" vert-adv-y="2263" 
 />
    <glyph glyph-name="Korea1.8687" unicode="&#x24ef;" horiz-adv-x="1986" vert-adv-y="2263" 
 />
    <glyph glyph-name="Korea1.8688" unicode="&#x24f0;" horiz-adv-x="1986" vert-adv-y="2263" 
 />
    <glyph glyph-name="Korea1.8689" unicode="&#x24f1;" horiz-adv-x="1986" vert-adv-y="2263" 
 />
    <glyph glyph-name="Korea1.8690" unicode="&#x24f2;" horiz-adv-x="1986" vert-adv-y="2263" 
 />
    <glyph glyph-name="Korea1.8691" unicode="&#x24f3;" horiz-adv-x="1986" vert-adv-y="2263" 
 />
    <glyph glyph-name="Korea1.8692" unicode="&#x24f4;" horiz-adv-x="1986" vert-adv-y="2263" 
 />
    <glyph glyph-name="Korea1.519" unicode="&#x2500;" horiz-adv-x="1884" vert-adv-y="2263" 
d="M1884 645v-59h-1884v59h1884z" />
    <glyph glyph-name="Korea1.530" unicode="&#x2501;" horiz-adv-x="1884" vert-adv-y="2263" 
d="M1884 666v-111h-1884v111h1884z" />
    <glyph glyph-name="Korea1.520" unicode="&#x2502;" horiz-adv-x="1884" vert-adv-y="2263" 
d="M973 1638v-2048h-60v2048h60z" />
    <glyph glyph-name="Korea1.531" unicode="&#x2503;" horiz-adv-x="1884" vert-adv-y="2263" 
d="M997 1638v-2048h-110v2048h110z" />
    <glyph glyph-name="Korea1.521" unicode="&#x250c;" horiz-adv-x="1884" vert-adv-y="2263" 
d="M1884 645v-59h-911v-996h-60v1055h971z" />
    <glyph glyph-name="Korea1.558" unicode="&#x250d;" horiz-adv-x="1884" vert-adv-y="2263" 
d="M1884 688v-147h-903v-951h-78v1098h981z" />
    <glyph glyph-name="Korea1.557" unicode="&#x250e;" horiz-adv-x="1884" vert-adv-y="2263" 
d="M1884 651v-73h-864v-988h-156v1061h1020z" />
    <glyph glyph-name="Korea1.532" unicode="&#x250f;" horiz-adv-x="1884" vert-adv-y="2263" 
d="M1884 666v-111h-887v-965h-110v1076h997z" />
    <glyph glyph-name="Korea1.522" unicode="&#x2510;" horiz-adv-x="1884" vert-adv-y="2263" 
d="M973 645v-1055h-60v996h-913v59h973z" />
    <glyph glyph-name="Korea1.552" unicode="&#x2511;" horiz-adv-x="1884" vert-adv-y="2263" 
d="M981 688v-1098h-78v951h-903v147h981z" />
    <glyph glyph-name="Korea1.551" unicode="&#x2512;" horiz-adv-x="1884" vert-adv-y="2263" 
d="M1020 651v-1061h-156v988h-864v73h1020z" />
    <glyph glyph-name="Korea1.533" unicode="&#x2513;" horiz-adv-x="1884" vert-adv-y="2263" 
d="M997 666v-1076h-110v965h-887v111h997z" />
    <glyph glyph-name="Korea1.524" unicode="&#x2514;" horiz-adv-x="1884" vert-adv-y="2263" 
d="M1884 645v-59h-971v1052h60v-993h911z" />
    <glyph glyph-name="Korea1.556" unicode="&#x2515;" horiz-adv-x="1884" vert-adv-y="2263" 
d="M1884 688v-147h-981v1097h78v-950h903z" />
    <glyph glyph-name="Korea1.555" unicode="&#x2516;" horiz-adv-x="1884" vert-adv-y="2263" 
d="M1884 651v-73h-1020v1060h156v-987h864z" />
    <glyph glyph-name="Korea1.535" unicode="&#x2517;" horiz-adv-x="1884" vert-adv-y="2263" 
d="M1884 666v-111h-997v1083h110v-972h887z" />
    <glyph glyph-name="Korea1.523" unicode="&#x2518;" horiz-adv-x="1884" vert-adv-y="2263" 
d="M973 1638v-1052h-973v59h913v993h60z" />
    <glyph glyph-name="Korea1.554" unicode="&#x2519;" horiz-adv-x="1884" vert-adv-y="2263" 
d="M981 1638v-1097h-981v147h903v950h78z" />
    <glyph glyph-name="Korea1.553" unicode="&#x251a;" horiz-adv-x="1884" vert-adv-y="2263" 
d="M1020 1638v-1060h-1020v73h864v987h156z" />
    <glyph glyph-name="Korea1.534" unicode="&#x251b;" horiz-adv-x="1884" vert-adv-y="2263" 
d="M997 1638v-1083h-997v111h887v972h110z" />
    <glyph glyph-name="Korea1.525" unicode="&#x251c;" horiz-adv-x="1884" vert-adv-y="2263" 
d="M1884 645v-59h-911v-996h-60v2048h60v-993h911z" />
    <glyph glyph-name="Korea1.546" unicode="&#x251d;" horiz-adv-x="1884" vert-adv-y="2263" 
d="M1884 688v-147h-903v-951h-78v2048h78v-950h903z" />
    <glyph glyph-name="Korea1.559" unicode="&#x251e;" horiz-adv-x="1884" vert-adv-y="2263" 
d="M1884 651v-73h-905l2 -988h-78v1024h-39v1024h156v-987h864z" />
    <glyph glyph-name="Korea1.560" unicode="&#x251f;" horiz-adv-x="1884" vert-adv-y="2263" 
d="M1884 651v-73h-864v-988h-156v1024h39v1024h78v-987h903z" />
    <glyph glyph-name="Korea1.541" unicode="&#x2520;" horiz-adv-x="1884" vert-adv-y="2263" 
d="M1884 651v-73h-866v-988h-156v2048h156v-987h866z" />
    <glyph glyph-name="Korea1.561" unicode="&#x2521;" horiz-adv-x="1884" vert-adv-y="2263" 
d="M1884 688v-147h-903v-951h-78v1024h-39v1024h156v-950h864z" />
    <glyph glyph-name="Korea1.562" unicode="&#x2522;" horiz-adv-x="1884" vert-adv-y="2263" 
d="M1884 688v-147h-864v-951h-156v1024h39v1024h78v-950h903z" />
    <glyph glyph-name="Korea1.536" unicode="&#x2523;" horiz-adv-x="1884" vert-adv-y="2263" 
d="M1884 666v-111h-887v-965h-110v2048h110v-972h887z" />
    <glyph glyph-name="Korea1.527" unicode="&#x2524;" horiz-adv-x="1884" vert-adv-y="2263" 
d="M973 1638v-2048h-60v996h-913v59h913v993h60z" />
    <glyph glyph-name="Korea1.548" unicode="&#x2525;" horiz-adv-x="1884" vert-adv-y="2263" 
d="M981 1638v-2048h-78v951h-903v147h903v950h78z" />
    <glyph glyph-name="Korea1.563" unicode="&#x2526;" horiz-adv-x="1884" vert-adv-y="2263" 
d="M1020 1638v-1024h-39v-1024h-78v988h-903v73h864v987h156z" />
    <glyph glyph-name="Korea1.564" unicode="&#x2527;" horiz-adv-x="1884" vert-adv-y="2263" 
d="M1020 614v-1024h-156v988h-864v73h903v987h78v-1024h39z" />
    <glyph glyph-name="Korea1.543" unicode="&#x2528;" horiz-adv-x="1884" vert-adv-y="2263" 
d="M1020 1638v-2048h-156v988h-864v73h864v987h156z" />
    <glyph glyph-name="Korea1.565" unicode="&#x2529;" horiz-adv-x="1884" vert-adv-y="2263" 
d="M1020 1638v-1024h-39v-1024h-78v951h-903v147h864v950h156z" />
    <glyph glyph-name="Korea1.566" unicode="&#x252a;" horiz-adv-x="1884" vert-adv-y="2263" 
d="M1020 614v-1024h-156v951h-864v147h903v950h78v-1024h39z" />
    <glyph glyph-name="Korea1.538" unicode="&#x252b;" horiz-adv-x="1884" vert-adv-y="2263" 
d="M997 1638v-2048h-110v965h-887v111h887v972h110z" />
    <glyph glyph-name="Korea1.526" unicode="&#x252c;" horiz-adv-x="1884" vert-adv-y="2263" 
d="M1884 645v-59h-911v-996h-60v996h-913v59h1884z" />
    <glyph glyph-name="Korea1.567" unicode="&#x252d;" horiz-adv-x="1884" vert-adv-y="2263" 
d="M1884 651v-73h-903v-988h-78v951h-903v147h942v-37h942z" />
    <glyph glyph-name="Korea1.568" unicode="&#x252e;" horiz-adv-x="1884" vert-adv-y="2263" 
d="M1884 688v-147h-903v-951h-78v988h-903v73h942v37h942z" />
    <glyph glyph-name="Korea1.542" unicode="&#x252f;" horiz-adv-x="1884" vert-adv-y="2263" 
d="M1884 688v-147h-903v-951h-78v951h-903v147h1884z" />
    <glyph glyph-name="Korea1.547" unicode="&#x2530;" horiz-adv-x="1884" vert-adv-y="2263" 
d="M1884 651v-73h-864v-988h-156v988h-864v73h1884z" />
    <glyph glyph-name="Korea1.569" unicode="&#x2531;" horiz-adv-x="1884" vert-adv-y="2263" 
d="M1884 651v-73h-864v-988h-156v951h-864v147h942v-37h942z" />
    <glyph glyph-name="Korea1.570" unicode="&#x2532;" horiz-adv-x="1884" vert-adv-y="2263" 
d="M1884 688v-147h-864v-951h-156v988h-864v73h942v37h942z" />
    <glyph glyph-name="Korea1.537" unicode="&#x2533;" horiz-adv-x="1884" vert-adv-y="2263" 
d="M1884 666v-111h-887v-965h-110v965h-887v111h1884z" />
    <glyph glyph-name="Korea1.528" unicode="&#x2534;" horiz-adv-x="1884" vert-adv-y="2263" 
d="M1884 645v-59h-1884v59h913v993h60v-993h911z" />
    <glyph glyph-name="Korea1.571" unicode="&#x2535;" horiz-adv-x="1884" vert-adv-y="2263" 
d="M1884 651v-73h-942v-37h-942v147h903v950h78v-987h903z" />
    <glyph glyph-name="Korea1.572" unicode="&#x2536;" horiz-adv-x="1884" vert-adv-y="2263" 
d="M1884 688v-147h-942v37h-942v73h903v987h78v-950h903z" />
    <glyph glyph-name="Korea1.544" unicode="&#x2537;" horiz-adv-x="1884" vert-adv-y="2263" 
d="M1884 688v-147h-1884v147h903v950h78v-950h903z" />
    <glyph glyph-name="Korea1.549" unicode="&#x2538;" horiz-adv-x="1884" vert-adv-y="2263" 
d="M1884 651v-73h-1884v73h864v987h156v-987h864z" />
    <glyph glyph-name="Korea1.573" unicode="&#x2539;" horiz-adv-x="1884" vert-adv-y="2263" 
d="M1884 651v-73h-942v-37h-942v147h864v950h156v-987h864z" />
    <glyph glyph-name="Korea1.574" unicode="&#x253a;" horiz-adv-x="1884" vert-adv-y="2263" 
d="M1884 688v-147h-942v37h-942v73h864v987h156v-950h864z" />
    <glyph glyph-name="Korea1.539" unicode="&#x253b;" horiz-adv-x="1884" vert-adv-y="2263" 
d="M1884 666v-111h-1884v111h887v972h110v-972h887z" />
    <glyph glyph-name="Korea1.529" unicode="&#x253c;" horiz-adv-x="1884" vert-adv-y="2263" 
d="M1884 643v-59h-911v-994h-60v994h-913v59h913v995h60v-995h911z" />
    <glyph glyph-name="Korea1.575" unicode="&#x253d;" horiz-adv-x="1884" vert-adv-y="2263" 
d="M1884 651v-73h-903v-988h-78v951h-903v155h903v942h78v-987h903z" />
    <glyph glyph-name="Korea1.576" unicode="&#x253e;" horiz-adv-x="1884" vert-adv-y="2263" 
d="M1884 688v-147h-903v-951h-78v988h-903v73h903v987h78v-950h903z" />
    <glyph glyph-name="Korea1.545" unicode="&#x253f;" horiz-adv-x="1884" vert-adv-y="2263" 
d="M1884 688v-147h-903v-951h-78v951h-903v147h903v950h78v-950h903z" />
    <glyph glyph-name="Korea1.577" unicode="&#x2540;" horiz-adv-x="1884" vert-adv-y="2263" 
d="M1884 651v-73h-903v-988h-78v988h-903v73h864v987h156v-987h864z" />
    <glyph glyph-name="Korea1.578" unicode="&#x2541;" horiz-adv-x="1884" vert-adv-y="2263" 
d="M1884 651v-73h-864v-988h-156v988h-864v73h903v987h78v-987h903z" />
    <glyph glyph-name="Korea1.550" unicode="&#x2542;" horiz-adv-x="1884" vert-adv-y="2263" 
d="M1884 651v-73h-864v-988h-156v988h-864v73h864v987h156v-987h864z" />
    <glyph glyph-name="Korea1.579" unicode="&#x2543;" horiz-adv-x="1884" vert-adv-y="2263" 
d="M1884 651v-73h-903v-988h-78v951h-903v147h864v950h156v-987h864z" />
    <glyph glyph-name="Korea1.580" unicode="&#x2544;" horiz-adv-x="1884" vert-adv-y="2263" 
d="M1884 688v-147h-903v-951h-78v988h-903v73h864v987h156v-950h864z" />
    <glyph glyph-name="Korea1.581" unicode="&#x2545;" horiz-adv-x="1884" vert-adv-y="2263" 
d="M1884 651v-73h-864v-988h-156v951h-864v147h903v950h78v-987h903z" />
    <glyph glyph-name="Korea1.582" unicode="&#x2546;" horiz-adv-x="1884" vert-adv-y="2263" 
d="M1884 688v-147h-864v-951h-156v988h-864v73h903v987h78v-950h903z" />
    <glyph glyph-name="Korea1.583" unicode="&#x2547;" horiz-adv-x="1884" vert-adv-y="2263" 
d="M1884 688v-147h-903v-951h-78v951h-903v147h864v950h156v-950h864z" />
    <glyph glyph-name="Korea1.584" unicode="&#x2548;" horiz-adv-x="1884" vert-adv-y="2263" 
d="M1884 688v-147h-864v-951h-156v951h-864v147h903v950h78v-950h903z" />
    <glyph glyph-name="Korea1.585" unicode="&#x2549;" horiz-adv-x="1884" vert-adv-y="2263" 
d="M1884 651v-73h-864v-988h-156v951h-864v147h864v950h156v-987h864z" />
    <glyph glyph-name="Korea1.586" unicode="&#x254a;" horiz-adv-x="1884" vert-adv-y="2263" 
d="M1884 688v-147h-864v-951h-156v988h-864v73h864v987h156v-950h864z" />
    <glyph glyph-name="Korea1.540" unicode="&#x254b;" horiz-adv-x="1884" vert-adv-y="2263" 
d="M1884 666v-111h-887v-965h-110v965h-887v111h887v972h110v-972h887z" />
    <glyph glyph-name="Korea1.232" unicode="&#x2592;" vert-adv-y="2263" 
d="M358 90q50 0 50 -52t-50 -52q-24 0 -38 15t-15 38t15 37t38 14zM600 39q0 -23 -15 -38t-37 -15t-37 15t-15 38t15 37t37 14t36 -14q16 -14 16 -37zM408 231q0 -53 -50 -53q-24 0 -38 16t-14 36q0 22 14 36q16 14 38 14t36 -14q14 -15 14 -35zM600 230q0 -22 -15 -36
t-37 -16q-22 0 -37 16t-15 36q0 22 15 36t37 14t36 -14q16 -14 16 -36zM793 39q1 -23 -15 -38t-39 -15t-37 15t-14 38q0 51 51 51q23 0 39 -14t15 -37zM408 422q0 -53 -50 -53q-24 0 -38 15t-15 38t15 38t38 15q50 0 50 -53zM793 230q1 -22 -15 -36t-39 -16q-23 0 -37 16
t-14 36q0 22 14 36t37 14t39 -14t15 -36zM600 422q0 -23 -15 -38t-37 -15t-37 15t-15 38t15 38t37 15t36 -15q16 -15 16 -38zM983 39q0 -23 -14 -38q-13 -15 -35 -15t-38 15q-15 15 -15 38t15 37t36 14q51 0 51 -51zM408 614q0 -20 -14 -35t-36 -15q-24 0 -38 14
q-14 16 -14 38t14 35q16 14 38 15q50 -1 50 -52zM983 230q0 -22 -14 -36q-13 -14 -35 -16q-22 0 -38 16t-15 36q0 22 15 36t37 14t36 -14t14 -36zM793 422q1 -23 -15 -38t-39 -15t-37 15t-14 38t14 38t37 15t39 -15t15 -38zM600 616q0 -22 -15 -37t-37 -15t-37 14
q-15 16 -15 38t15 35q15 15 37 15t36 -14q16 -14 16 -36zM1178 39q0 -23 -16 -38t-38 -15q-23 0 -38 15t-15 38t15 37t38 14q22 0 38 -14t16 -37zM408 807q0 -53 -50 -53q-24 0 -38 15t-15 38t15 38t38 15q50 0 50 -53zM1178 230q0 -22 -16 -36t-38 -16q-23 0 -38 16t-15 36
q0 22 15 36t38 14q22 0 38 -14t16 -36zM983 422q0 -23 -14 -38q-13 -15 -35 -15t-38 15q-15 15 -15 38t15 38t37 15t36 -15t14 -38zM793 616q1 -22 -15 -37t-39 -15t-37 14q-14 16 -14 36q0 51 51 52q23 0 39 -14t15 -36zM600 807q0 -23 -15 -38t-37 -15t-37 15t-15 38
t15 38t37 15t36 -15q16 -15 16 -38zM1368 39q0 -23 -14 -38t-37 -15t-37 15t-14 38q0 51 51 51t51 -51zM408 997q0 -20 -14 -34q-14 -15 -36 -15q-24 0 -38 14t-14 36t14 37q16 15 38 16q50 -1 50 -54zM1561 39q1 -23 -15 -38t-39 -15t-37 15t-14 38q0 51 51 51q23 0 39 -14
t15 -37zM1368 230q0 -22 -14 -36t-37 -16q-23 0 -37 16t-14 36q0 22 14 36t37 14t37 -14t14 -36zM1178 422q0 -23 -16 -38t-38 -15q-23 0 -38 15t-15 38t15 38t38 15q22 0 38 -15t16 -38zM983 614q0 -20 -14 -35q-13 -15 -35 -15t-38 14q-16 16 -15 38q0 22 15 35
q15 14 36 15q51 -1 51 -52zM793 807q1 -23 -15 -38t-39 -15t-37 15t-14 38t14 38t37 15t39 -15t15 -38zM600 998q0 -22 -15 -35q-15 -15 -37 -15t-37 14t-15 36t15 37t37 15t36 -14q16 -16 16 -38zM358 1243q50 0 50 -52t-50 -52q-24 0 -38 14t-15 37t15 38t38 15zM1561 230
q1 -22 -15 -36t-39 -16q-23 0 -37 16t-14 36q0 22 14 36t37 14t39 -14t15 -36zM600 1190q0 -23 -15 -37t-37 -14t-37 14t-15 37t15 38t37 15t36 -15q16 -15 16 -38zM1368 422q0 -23 -14 -38t-37 -15t-37 15t-14 38t14 38t37 15t37 -15t14 -38zM1178 616q0 -22 -16 -37
t-38 -15q-23 0 -38 14q-15 16 -15 38t15 35q15 15 38 15q22 0 38 -14t16 -36zM983 807q0 -23 -14 -38q-13 -15 -35 -15t-38 15q-15 15 -15 38t15 38t37 15t36 -15t14 -38zM793 998q1 -22 -15 -35q-16 -15 -39 -15t-37 14t-14 36t14 37t37 15t39 -14q16 -16 15 -38zM1561 422
q1 -23 -15 -38t-39 -15t-37 15t-14 38t14 38t37 15t39 -15t15 -38zM793 1190q1 -23 -15 -37t-39 -14q-51 0 -51 51q0 23 14 38t37 15t39 -15t15 -38zM1368 614q0 -20 -14 -35t-37 -15t-37 14q-14 16 -14 36q0 51 51 52q51 -1 51 -52zM1178 807q0 -23 -16 -38t-38 -15
q-23 0 -38 15t-15 38t15 38t38 15q22 0 38 -15t16 -38zM983 998q0 -22 -14 -35q-13 -15 -35 -15t-38 14t-15 36q0 22 15 37t37 15t36 -14q14 -16 14 -38zM1561 616q1 -22 -15 -37t-39 -15t-37 14q-14 16 -14 36q0 51 51 52q23 0 39 -14t15 -36zM983 1190q0 -51 -51 -51
q-20 0 -36 14q-15 14 -15 37t15 38t37 15t36 -15t14 -38zM1368 807q0 -23 -14 -38t-37 -15t-37 15t-14 38t14 38t37 15t37 -15t14 -38zM1178 998q0 -22 -16 -35q-16 -15 -38 -15q-23 0 -38 14t-15 36t15 37t38 15q22 0 38 -14q16 -16 16 -38zM1561 807q1 -23 -15 -38
t-39 -15t-37 15t-14 38t14 38t37 15t39 -15t15 -38zM1178 1190q0 -23 -16 -37t-38 -14q-23 0 -38 14t-15 37t15 38t38 15q22 0 38 -15t16 -38zM1368 998q0 -22 -14 -35q-14 -15 -37 -15t-37 14t-14 36t14 37t37 15t37 -14q14 -16 14 -38zM1561 998q1 -22 -15 -35
q-16 -15 -39 -15t-37 14t-14 36t14 37t37 15t39 -14q16 -16 15 -38zM1368 1190q0 -51 -51 -51t-51 51q0 23 14 38t37 15t37 -15t14 -38zM1561 1190q1 -23 -15 -37t-39 -14q-51 0 -51 51q0 23 14 38t37 15t39 -15t15 -38zM238 -84h1388v1387h-1388v-1387zM1694 1370v-1522
h-1524v1522h1524z" />
    <glyph glyph-name="Korea1.165" unicode="&#x25a0;" vert-adv-y="2263" 
d="M1649 -57h-1438v1435h1438v-1435z" />
    <glyph glyph-name="Korea1.164" unicode="&#x25a1;" vert-adv-y="2263" 
d="M215 -57v1435h1436v-1435h-1436zM1497 1225h-1124v-1123h1124v1123z" />
    <glyph glyph-name="Korea1.229" unicode="&#x25a3;" vert-adv-y="2263" 
d="M1391 1067v-922h-922v922h922zM260 -61h1339v1337h-1339v-1337zM1706 1382v-1550h-1552v1550h1552z" />
    <glyph glyph-name="Korea1.233" unicode="&#x25a4;" vert-adv-y="2263" 
d="M238 -84h1388v137h-1388v-137zM238 119h1388v139h-1388v-139zM238 324h1388v147h-1388v-147zM238 537h1388v145h-1388v-145zM238 748h1388v135h-1388v-135zM238 948h1388v150h-1388v-150zM238 1163h1388v140h-1388v-140zM1694 1370v-1522h-1524v1522h1524z" />
    <glyph glyph-name="Korea1.234" unicode="&#x25a5;" vert-adv-y="2263" 
d="M238 -84h139v1387h-139v-1387zM442 -84h150v1387h-150v-1387zM657 -84h136v1387h-136v-1387zM858 -84h146v1387h-146v-1387zM1069 -84h148v1387h-148v-1387zM1282 -84h139v1387h-139v-1387zM1487 -84h139v1387h-139v-1387zM1694 1370v-1522h-1524v1522h1524z" />
    <glyph glyph-name="Korea1.237" unicode="&#x25a6;" vert-adv-y="2263" 
d="M238 -84h145v145h-145v-145zM238 123h145v145h-145v-145zM444 -84h146v145h-146v-145zM444 123h146v145h-146v-145zM238 330h145v145h-145v-145zM651 -84h146v145h-146v-145zM651 123h146v145h-146v-145zM444 330h146v145h-146v-145zM238 537h145v145h-145v-145zM858 -84
h146v145h-146v-145zM858 123h146v145h-146v-145zM651 330h146v145h-146v-145zM444 537h146v145h-146v-145zM238 743h145v146h-145v-146zM1065 -84h145v145h-145v-145zM1065 123h145v145h-145v-145zM858 330h146v145h-146v-145zM651 537h146v145h-146v-145zM444 743h146v146
h-146v-146zM238 950h145v146h-145v-146zM1272 -84h145v145h-145v-145zM1272 123h145v145h-145v-145zM1065 330h145v145h-145v-145zM858 537h146v145h-146v-145zM651 743h146v146h-146v-146zM444 950h146v146h-146v-146zM238 1157h145v146h-145v-146zM1481 -84h145v145h-145
v-145zM1272 330h145v145h-145v-145zM1065 537h145v145h-145v-145zM858 743h146v146h-146v-146zM651 950h146v146h-146v-146zM444 1157h146v146h-146v-146zM1481 123h145v145h-145v-145zM1272 537h145v145h-145v-145zM1065 743h145v146h-145v-146zM858 950h146v146h-146v-146
zM651 1157h146v146h-146v-146zM1481 330h145v145h-145v-145zM1272 743h145v146h-145v-146zM1065 950h145v146h-145v-146zM858 1157h146v146h-146v-146zM1481 537h145v145h-145v-145zM1272 950h145v146h-145v-146zM1065 1157h145v146h-145v-146zM1481 743h145v146h-145v-146z
M1272 1157h145v146h-145v-146zM1481 950h145v146h-145v-146zM1481 1157h145v146h-145v-146zM1694 1370v-1522h-1524v1522h1524z" />
    <glyph glyph-name="Korea1.236" unicode="&#x25a7;" vert-adv-y="2263" 
d="M238 -84h319l-319 320v-320zM655 -84h242l-659 659v-241zM995 -84h242l-999 999v-241zM1335 -84h242l-1339 1339v-241zM289 1303l1337 -1338v242l-1098 1096h-239zM627 1303l999 -998v242l-758 756h-241zM967 1303l659 -658v244l-416 414h-243zM1626 1303h-317l317 -316
v316zM1694 1370v-1522h-1524v1522h1524z" />
    <glyph glyph-name="Korea1.235" unicode="&#x25a8;" vert-adv-y="2263" 
d="M238 -35l1337 1338h-240l-1097 -1096v-242zM238 305l999 998h-242l-757 -756v-242zM238 645l659 658h-244l-415 -414v-244zM238 1303v-316l317 316h-317zM1626 -84v320l-319 -320h319zM1208 -84l418 418v241l-659 -659h241zM868 -84l758 758v241l-999 -999h241zM528 -84
l1098 1098v241l-1339 -1339h241zM1694 1370v-1522h-1524v1522h1524z" />
    <glyph glyph-name="Korea1.238" unicode="&#x25a9;" vert-adv-y="2263" 
d="M281 -84h276l-139 139zM238 -27l131 131l-131 132v-263zM606 -35l119 123l-137 137l-121 -121zM418 154l121 120l-131 132l-121 -121zM653 -84h244l-121 121zM238 336l120 119l-120 120v-239zM946 -35l121 121l-121 121l-121 -121zM774 135l123 121l-137 139l-123 -121z
M588 324l121 120l-131 131l-121 -120zM408 504l120 121l-120 120l-121 -120zM238 674l120 121l-120 120v-241zM995 -84h242l-121 121zM1286 -35l121 121l-121 121l-121 -121zM1116 135l121 121l-121 121l-121 -121zM760 494l119 118l-131 133l-121 -120zM578 674l120 121
l-120 120l-121 -120zM408 844l120 121l-120 120l-121 -120zM944 307l123 119l-137 139l-121 -123zM238 1014l120 121l-120 120v-241zM1335 -84h242l-121 121zM1505 86l121 -121v242zM408 1184l120 119h-239zM750 842l118 121l-123 120l-118 -118zM1456 135l121 121l-121 121
l-121 -121zM1286 305l121 121l-123 121l-119 -119zM930 662l119 120l-131 131l-119 -120zM578 1014l120 119l-123 122l-118 -120zM1114 477l123 119l-139 137l-119 -121zM1505 426l121 -121v242zM748 1182l120 121h-241zM1456 475l121 121l-123 121l-121 -121zM1284 645
l121 123l-135 135l-121 -121zM1100 831l121 121l-134 129l-120 -118zM918 1012l122 121l-122 120l-121 -120zM1503 766l123 -123v246zM1090 1180l122 123h-245zM1270 999l121 123l-131 131l-123 -120zM1454 815l123 123l-135 137l-125 -123zM1440 1171l133 132h-264z
M1489 1122l137 -135v273zM1694 1370v-1522h-1524v1522h1524z" />
    <glyph glyph-name="Korea1.8736" unicode="&#x25b1;" horiz-adv-x="1986" vert-adv-y="2263" 
 />
    <glyph glyph-name="Korea1.167" unicode="&#x25b2;" vert-adv-y="2263" 
d="M1696 -76h-1532l768 1526z" />
    <glyph glyph-name="Korea1.166" unicode="&#x25b3;" vert-adv-y="2263" 
d="M1698 -55h-1536l770 1525zM381 76h1089l-542 1087z" />
    <glyph glyph-name="Korea1.8780" unicode="&#x25b5;" horiz-adv-x="1986" vert-adv-y="2263" 
 />
    <glyph glyph-name="Korea1.220" unicode="&#x25b6;" vert-adv-y="2263" 
d="M287 1430l1290 -816l-1290 -811v1627z" />
    <glyph glyph-name="Korea1.219" unicode="&#x25b7;" vert-adv-y="2263" 
d="M418 43l915 571l-915 576v-1147zM287 1430l1290 -816l-1290 -811v1627z" />
    <glyph glyph-name="Korea1.8781" unicode="&#x25b9;" horiz-adv-x="1986" vert-adv-y="2263" 
 />
    <glyph glyph-name="Korea1.169" unicode="&#x25bc;" vert-adv-y="2263" 
d="M164 1380h1532l-764 -1525z" />
    <glyph glyph-name="Korea1.168" unicode="&#x25bd;" vert-adv-y="2263" 
d="M162 1380h1536l-766 -1525zM1475 1247h-1090l547 -1087z" />
    <glyph glyph-name="Korea1.8779" unicode="&#x25bf;" horiz-adv-x="1986" vert-adv-y="2263" 
 />
    <glyph glyph-name="Korea1.218" unicode="&#x25c0;" vert-adv-y="2263" 
d="M1577 1430v-1627l-1290 811z" />
    <glyph glyph-name="Korea1.217" unicode="&#x25c1;" vert-adv-y="2263" 
d="M526 614l916 -571v1147zM1577 1430v-1627l-1290 811z" />
    <glyph glyph-name="Korea1.8782" unicode="&#x25c3;" horiz-adv-x="1986" vert-adv-y="2263" 
 />
    <glyph glyph-name="Korea1.163" unicode="&#x25c6;" vert-adv-y="2263" 
d="M934 -152l-815 816l813 811l813 -813z" />
    <glyph glyph-name="Korea1.162" unicode="&#x25c7;" vert-adv-y="2263" 
d="M119 662l813 813l811 -813l-811 -814zM1528 662l-596 598l-602 -596l602 -605z" />
    <glyph glyph-name="Korea1.228" unicode="&#x25c8;" vert-adv-y="2263" 
d="M932 1145l536 -537l-536 -540l-543 540zM930 -162l772 772l-770 768l-772 -770zM932 1516l905 -906l-907 -909l-907 907z" />
    <glyph glyph-name="Korea1.8787" unicode="&#x25ca;" horiz-adv-x="1986" vert-adv-y="2263" 
 />
    <glyph glyph-name="Korea1.159" unicode="&#x25cb;" vert-adv-y="2263" 
d="M184 663q0 310 220 529t530 219t529 -219q218 -219 218 -529q0 -311 -218 -531t-529 -220t-531 220q-219 221 -219 531zM340 664q0 -246 174 -420t421 -174t419 174t172 420t-172 418t-419 173q-247 -1 -421 -173t-174 -418z" />
    <glyph glyph-name="Korea1.8639" unicode="&#x25cc;" horiz-adv-x="1986" vert-adv-y="2263" 
 />
    <glyph glyph-name="Korea1.161" unicode="&#x25ce;" vert-adv-y="2263" 
d="M184 663q0 310 220 529t530 219t529 -219q218 -219 218 -529q0 -311 -218 -531t-529 -220t-531 220q-219 221 -219 531zM344 664q0 -244 173 -417t418 -173t418 172t173 417t-173 419t-418 173q-245 1 -418 -173t-173 -418zM494 664q0 182 129 311t311 129t311 -129
t129 -311t-129 -312t-311 -129q-182 -1 -311 129t-129 312zM627 662q0 -126 90 -216t217 -90t216 90t89 216t-90 216q-90 91 -216 91t-216 -91t-90 -216z" />
    <glyph glyph-name="Korea1.160" unicode="&#x25cf;" vert-adv-y="2263" 
d="M184 663q0 310 220 529t530 219t529 -219q218 -219 218 -529q0 -311 -218 -531t-529 -220t-531 220q-219 221 -219 531z" />
    <glyph glyph-name="Korea1.230" unicode="&#x25d0;" vert-adv-y="2263" 
d="M1651 612q0 295 -212 507t-507 212v-1435q295 0 507 210t212 506zM1731 612q1 -332 -233 -565t-564 -233t-566 234t-235 564q0 330 236 564q235 234 565 235t564 -233t233 -566z" />
    <glyph glyph-name="Korea1.231" unicode="&#x25d1;" vert-adv-y="2263" 
d="M932 -104v1435q-295 0 -507 -212t-212 -507q0 -296 212 -506t507 -210zM1731 612q0 -330 -236 -564q-235 -234 -565 -234t-563 233t-234 565t233 566t564 233t566 -235t235 -564z" />
    <glyph glyph-name="Korea1.8775" unicode="&#x25e6;" horiz-adv-x="1986" vert-adv-y="2263" 
 />
    <glyph glyph-name="Korea1.8633" unicode="&#x25ef;" horiz-adv-x="1986" vert-adv-y="2263" 
 />
    <glyph glyph-name="Korea1.158" unicode="&#x2605;" vert-adv-y="2263" 
d="M936 1540l225 -666h703l-572 -423l217 -672l-573 403l-584 -403l219 672l-575 423h717z" />
    <glyph glyph-name="Korea1.157" unicode="&#x2606;" vert-adv-y="2263" 
d="M936 1540l225 -666h703l-572 -423l217 -672l-573 403l-584 -403l219 672l-575 423h717zM1065 750l-131 395l-131 -395h-426l342 -254l-133 -396l348 242l338 -242l-123 396l336 254h-420z" />
    <glyph glyph-name="Korea1.241" unicode="&#x260e;" vert-adv-y="2263" 
d="M1233 426q0 125 -88 213t-213 88t-213 -88t-88 -213t88 -212t213 -87t213 87t88 212zM772 899h320v133q-78 -20 -160 -20t-160 20v-133zM1604 -43h-1344q-68 0 -70 33q-6 51 4 102t39 62q0 225 144 346q53 42 81 70q75 73 110 205q36 132 20 251q-102 -16 -113 -76
q-4 -18 18 -80t15 -82q-12 -63 -174 -110q-181 -44 -219 -36q-38 9 -49 30q-29 36 -13 144t70 175q94 123 319 185q226 62 490 63q264 0 489 -62t320 -186q53 -68 69 -175t-12 -144q-33 -56 -268 6q-162 47 -174 110q-6 23 14 83t19 79q-10 59 -113 76q-16 -129 18 -252
t112 -204q28 -28 81 -70q143 -121 143 -346q29 -10 39 -62t4 -102q-2 -33 -69 -33z" />
    <glyph glyph-name="Korea1.240" unicode="&#x260f;" vert-adv-y="2263" 
d="M299 37h1266q6 -1 9 25t-4 58t-28 44q0 59 -22 139q-22 79 -82 135t-86 82q-71 71 -99 146q-63 178 -49 333h-71v-180h-402v180h-76q16 -164 -45 -333q-6 -12 -15 -33t-21 -36q-11 -15 -18 -25t-31 -35l-42 -42q-37 -37 -78 -74q-42 -38 -65 -118t-23 -139
q-20 -12 -27 -44t-3 -58t12 -25zM1604 -43h-1344q-68 0 -70 33q-6 51 4 102t39 62q0 225 144 346q53 42 81 70q75 73 109 201q35 128 21 235q-32 0 -39 -2q-9 -2 -21 -5q-12 -2 -27 -13t-18 -32q-5 -22 13 -84t12 -82q-12 -63 -174 -110q-181 -44 -219 -36q-38 9 -49 30
q-29 37 -13 142t70 173q94 123 320 188q227 65 489 65t488 -66q226 -64 321 -187q53 -68 69 -173t-12 -142q-33 -56 -268 6q-162 47 -174 110q-6 23 12 90t10 84t-18 26t-24 11q-13 3 -26 5q-13 3 -34 2q-24 -88 22 -240q31 -116 108 -196q28 -28 81 -70q143 -121 143 -346
q29 -10 39 -62t4 -102q-2 -33 -69 -33zM1163 418q0 96 -67 164q-68 68 -164 68t-164 -68t-68 -164t68 -163t164 -67t164 67q67 67 67 163zM1247 417q0 -128 -93 -221q-93 -94 -223 -94t-222 92q-93 92 -93 223q0 130 94 223t221 93q128 0 222 -94t94 -222zM912 1171
q-190 0 -380 -42q-188 -42 -267 -102t-111 -133t-31 -120q2 -47 20 -49q78 -9 156 15t119 61q14 12 -2 79t2 115q39 84 295 84q12 0 94 -14q70 -16 122 -16t131 15t87 15q254 0 299 -84q18 -49 1 -115t-5 -79q40 -35 120 -59t154 -17q10 0 20 30t-10 88q-39 111 -121 176
q-83 64 -293 108t-400 44zM805 887h254v108q-61 -20 -127 -20t-127 20v-108z" />
    <glyph glyph-name="Korea1.242" unicode="&#x261c;" vert-adv-y="2263" 
d="M956 647q0 33 -41 35q-180 10 -274 0q-43 -6 -39 -45q0 -15 11 -27t30 -12q158 -8 275 4q38 6 38 45zM1038 397q-2 37 -63 37q-143 4 -232 -2q-45 -4 -36 -49q4 -31 36 -37q100 -20 234 -8q67 4 61 59zM940 465q60 -1 64 45q2 24 -12 37q-14 12 -62 18q-50 6 -228 -2
q-20 -2 -33 -16t-14 -35q0 -33 52 -41q18 -4 123 -6t110 0zM1612 410h90v415h-90v-415zM162 838q0 -28 39 -38q39 -9 170 -18q313 -14 383 -16l43 65q35 48 82 64q-139 0 -381 -6q-242 -7 -289 -15t-47 -36zM1581 444v316q-47 -4 -90 6q10 -40 5 -38q-5 1 -15 11
q-39 47 -107 93t-195 59q-126 14 -196 5t-135 -50q-23 -12 -42 -51t-42 -54q-12 -16 9 -19q50 -7 100 38q24 20 36 32q13 12 21 3q8 -8 -12 -29q73 -28 158 25q9 4 11 0q8 -23 -28 -48q16 -23 73 -65t145 -56q87 -14 109 -17t23 -13q-2 -12 -64 -8t-114 18q-137 45 -205 137
q-12 -8 -51 -7t-82 13l-31 -26q121 0 133 -51q14 -53 -22 -84q57 -14 63 -58q4 -41 -30 -65q59 -12 65 -58q6 -27 -5 -46t-22 -21q29 -6 72 0q250 23 414 127q12 10 14 -2l-4 -17h41zM1735 860v-483h-156v43h-59q-129 -78 -344 -113q-78 -10 -203 -10t-209 13q-84 14 -94 60
t28 70q-28 0 -52 20t-26 52q-2 33 23 57q-74 8 -74 68q0 45 39 63t129 19l-6 16q-495 14 -549 37q-55 22 -55 66q0 66 219 77q92 13 356 13h283q113 0 173 -4t150 -32t150 -85q66 -16 123 -12v65h154z" />
    <glyph glyph-name="Korea1.9222" unicode="&#x261d;" horiz-adv-x="1986" vert-adv-y="2263" 
 />
    <glyph glyph-name="Korea1.243" unicode="&#x261e;" vert-adv-y="2263" 
d="M905 647q0 -39 39 -45q117 -12 275 -4q17 0 29 12t12 27q4 39 -39 45q-94 10 -275 0q-41 -2 -41 -35zM1118 346q33 6 39 44t-39 42q-88 6 -231 2q-61 0 -64 -37q-6 -55 62 -59q133 -12 233 8zM1206 512q0 20 -13 34t-34 17q-177 8 -227 2t-63 -18q-13 -13 -11 -37
q4 -45 64 -45q4 -2 109 0t124 6q51 8 51 41zM160 410h90v415h-90v-415zM1700 838q0 28 -47 36q-128 20 -670 21q47 -16 82 -64l43 -65q70 2 383 16q173 12 191 26t18 30zM281 444h41l-5 17q-3 6 3 6t12 -4q164 -104 413 -127q39 -6 66 0q-31 25 -20 67q6 45 65 58
q-35 25 -31 65q10 43 64 58q-37 31 -23 84q16 51 133 51l-30 26q-43 -12 -82 -13t-51 7q-68 -92 -205 -137q-51 -14 -113 -18t-65 8q1 10 23 13q116 15 169 33q53 17 97 50t61 55q-37 25 -29 48q3 5 33 -11q73 -39 137 -14q-18 20 -11 28t19 -2q54 -50 99 -68q44 -18 49 7
q2 6 -2 10q-22 13 -42 53t-42 52q-66 41 -136 50t-195 -5q-127 -14 -195 -59t-107 -93q-14 -14 -15 -7q-2 7 5 34q-43 -10 -90 -6v-316zM1292 637q0 -59 -73 -68q25 -25 23 -57t-27 -52q-24 -19 -52 -20q39 -24 29 -70t-94 -60t-210 -13q-124 0 -202 10q-215 35 -344 113
h-59v-43h-156v483h154v-65q57 -4 122 12q61 57 151 85t149 32q60 4 126 4h76q461 0 611 -10t185 -30q34 -20 34 -48q1 -29 -15 -46q-33 -37 -207 -42l-22 -2h-10q-143 -8 -351 -15l-6 -16q90 -1 129 -19t39 -63z" />
    <glyph glyph-name="Korea1.9223" unicode="&#x261f;" horiz-adv-x="1986" vert-adv-y="2263" 
 />
    <glyph glyph-name="Korea1.8664" unicode="&#x262f;" horiz-adv-x="1986" vert-adv-y="2263" 
 />
    <glyph glyph-name="Korea1.147" unicode="&#x2640;" vert-adv-y="2263" 
d="M831 174v203q-205 31 -337 187t-132 384q0 226 165 392t404 167q239 0 405 -167t165 -393q0 -226 -133 -385t-336 -187v-201h271v-203h-271v-262h-201v262h-272v203h272zM588 938q0 -146 100 -250t242 -104t245 105q101 105 101 249t-101 250q-101 104 -245 104
t-243 -104q-99 -105 -99 -250z" />
    <glyph glyph-name="Korea1.146" unicode="&#x2642;" vert-adv-y="2263" 
d="M1364 512q0 -236 -167 -402t-405 -167q-238 1 -403 167q-166 166 -166 404t166 404t406 165q199 0 329 -100q38 39 94 93t87 85h-162v197h495v-494h-198v162q-117 -121 -180 -180q104 -139 104 -334zM451 513q0 -147 100 -251q101 -104 243 -104t243 105t101 249
t-100 250q-102 104 -245 104t-243 -103q-99 -104 -99 -250z" />
    <glyph glyph-name="Korea1.222" unicode="&#x2660;" vert-adv-y="2263" 
d="M1614 418q0 -146 -81 -238q-81 -90 -208 -90q-57 0 -111 23t-149 77q4 -82 37 -198t74 -195q18 -39 -29 -45q-92 -10 -213 -10t-217 10q-47 6 -29 45q88 180 107 393q-166 -100 -256 -100q-131 0 -212 89t-81 219t103 301q58 97 100 164q75 123 442 579q27 35 41 51
q360 -453 471 -619q211 -310 211 -456z" />
    <glyph glyph-name="Korea1.223" unicode="&#x2661;" vert-adv-y="2263" 
d="M1491 931q0 140 -55 216q-54 76 -186 76t-195 -232q-31 -115 -123 -114q-37 1 -67 37t-44 77q-37 113 -93 172t-116 60q-133 0 -188 -76t-55 -221q0 -195 168 -446t395 -486q139 148 253 290t210 324t96 323zM1290 1395q158 0 264 -118q106 -117 107 -275
q0 -297 -238 -634t-491 -577q-264 252 -478 553q-256 358 -256 658q0 158 107 275q105 118 253 118t238 -90t136 -287q84 377 358 377z" />
    <glyph glyph-name="Korea1.226" unicode="&#x2663;" vert-adv-y="2263" 
d="M1419 803q147 -1 247 -113t99 -266q0 -154 -100 -270t-267 -115q-167 0 -325 172q84 -188 84 -424q0 -29 -37 -33q-72 -6 -190 -6t-187 6q-37 4 -36 33q0 246 79 424q-57 -68 -146 -120t-189 -52q-156 0 -254 116q-99 115 -99 269t98 266t244 113q86 0 258 -80
q46 -21 62 7t-19 63q-104 89 -146 163t-42 183q0 151 112 245q111 94 267 94t268 -94q112 -96 111 -245q0 -105 -43 -181t-146 -165q-35 -35 -16 -64q14 -27 59 -6q164 80 254 80z" />
    <glyph glyph-name="Korea1.221" unicode="&#x2664;" vert-adv-y="2263" 
d="M915 238q-11 -158 -35 -228t-24 -80q0 -12 73 -12t78 10t1 18t-4 11q-45 141 -56 281q-2 49 23 83t63 33q14 0 98 -64t158 -65t119 65t45 146q0 201 -522 832q-522 -631 -522 -832q0 -80 44 -146t118 -65q74 0 158 65q85 65 99 64q37 0 64 -35t22 -81zM1614 418
q0 -146 -81 -238q-81 -90 -208 -90q-57 0 -111 23t-149 77q4 -82 37 -198t74 -195q18 -39 -29 -45q-92 -10 -213 -10t-217 10q-47 6 -29 45q88 180 107 393q-166 -100 -256 -100q-131 0 -212 89t-81 219t103 301q58 97 100 164q75 123 442 579q27 35 41 51
q360 -453 471 -619q211 -310 211 -456z" />
    <glyph glyph-name="Korea1.224" unicode="&#x2665;" vert-adv-y="2263" 
d="M1290 1395q156 0 264 -118q108 -117 107 -275q0 -297 -238 -634t-491 -577q-264 252 -478 553q-256 358 -256 658q0 158 108 275q108 118 254 118t236 -90t136 -287q84 377 358 377z" />
    <glyph glyph-name="Korea1.225" unicode="&#x2667;" vert-adv-y="2263" 
d="M1362 178q122 0 196 74t74 186q0 110 -72 180q-73 70 -188 70q-70 0 -166 -35t-132 -35t-64 27t-29 67q0 63 99 154q38 36 69 98t31 138q0 122 -68 186t-180 64t-180 -66t-68 -184q0 -76 31 -138t67 -98q98 -98 97 -146q0 -48 -27 -75t-63 -27t-134 35t-168 35
q-115 0 -185 -70t-71 -180q0 -110 73 -186q73 -74 194 -74q63 0 120 28q56 28 92 60q97 89 138 88q31 0 31 -40t-30 -181t-30 -242q0 -20 33 -24t80 -4q110 0 108 28q0 99 -28 241t-27 182q0 40 30 40t79 -44q147 -132 268 -132zM1419 803q147 -1 247 -113t99 -266
q0 -154 -100 -270t-267 -115q-167 0 -325 172q84 -188 84 -424q0 -29 -37 -33q-72 -6 -190 -6t-187 6q-37 4 -36 33q0 246 79 424q-57 -68 -146 -120t-189 -52q-156 0 -254 116q-99 115 -99 269t98 266t244 113q86 0 258 -80q46 -21 62 7t-19 63q-104 89 -146 163t-42 183
q0 151 112 245q111 94 267 94t268 -94q112 -96 111 -245q0 -105 -43 -181t-146 -165q-35 -35 -16 -64q14 -27 59 -6q164 80 254 80z" />
    <glyph glyph-name="Korea1.239" unicode="&#x2668;" vert-adv-y="2263" 
d="M700 1036q-18 -68 29 -246t56 -267q9 -88 -113 -326q-45 -85 -47 -111t-13 -35t-24 19q-42 88 0 200t42 241q0 128 -30 196q-100 242 45 512q33 57 41 95q16 73 35 29q37 -106 -21 -307zM1747 207q0 -184 -238 -306q-237 -122 -569 -122t-579 106t-246 267q0 76 48 142
t126 110q148 81 252 108q25 8 27 -10t-23 -27q-281 -127 -281 -282q0 -97 206 -153t470 -56t473 70t209 182q0 76 -80 139t-156 86q-24 8 -18 22q12 27 116 -14q150 -56 220 -143q43 -56 43 -119zM956 1434q0 14 6 19t13 0q9 -5 23 -39t20 -116q6 -84 -25 -196
q-49 -140 9 -288t73 -228q0 -33 2 -56q7 -76 -108 -291q-78 -146 -80 -172q-3 -38 -17 -35q-15 3 -20 15q-45 104 16 252q37 86 40 220t-45 234q-47 101 -45 163q1 63 2 93q2 60 89 234q47 96 47 191zM1253 1042q-13 -104 35 -226t57 -210t-15 -161t-76 -153t-56 -85
q-39 -76 -57 -150q-16 -33 -33 5q-10 22 -8 88t20 110q119 297 54 453q-81 185 -49 335q13 60 45 135t30 148q0 19 9 23t20 -19q53 -100 24 -293z" />
    <glyph glyph-name="Korea1.253" unicode="&#x2669;" horiz-adv-x="794" vert-adv-y="2263" 
d="M590 1356v-1120q0 -92 -14 -150t-58 -106q-61 -74 -142 -103t-143 27q-49 68 -13 148t115 126q79 47 177 62v1116h78z" />
    <glyph glyph-name="Korea1.254" unicode="&#x266a;" horiz-adv-x="1103" vert-adv-y="2263" 
d="M981 694q0 -198 -180 -375q-61 -59 -101 -83t-48 -12q-7 11 10 28q203 197 202 395q0 138 -180 220q-64 30 -176 65v-696q0 -92 -14 -150t-58 -106q-61 -74 -142 -103t-142 27q-50 68 -14 148t115 126q79 47 177 62v1024q0 82 20 82t76 -66t129 -129q176 -151 251 -257
t75 -200z" />
    <glyph glyph-name="Korea1.255" unicode="&#x266c;" horiz-adv-x="1419" vert-adv-y="2263" 
d="M1307 391q0 -129 -138 -244q-88 -74 -172 -67q-47 4 -75 41q-31 49 -1 119q67 157 304 190v373l-711 -154v-456q0 -129 -137 -244q-87 -73 -172 -68q-47 4 -76 41q-31 49 -1 119q68 159 304 190v914l875 176v-930zM514 844l711 151v119l-711 -151v-119z" />
    <glyph glyph-name="Korea1.252" unicode="&#x266d;" horiz-adv-x="1058" vert-adv-y="2263" 
d="M856 543q0 -131 -42 -235t-107 -169q-184 -176 -504 -190v1362h129v-672q70 195 286 195q100 0 169 -80t69 -211zM700 472q0 110 -40 184t-105 73q-103 0 -163 -78t-60 -164v-438q127 8 248 107q120 98 120 316z" />
    <glyph glyph-name="Korea1.8594" unicode="&#x266f;" horiz-adv-x="1986" vert-adv-y="2263" 
 />
    <glyph glyph-name="Korea1.8631" unicode="&#x2716;" horiz-adv-x="1986" vert-adv-y="2263" 
 />
    <glyph glyph-name="Korea1.8630" unicode="&#x271a;" horiz-adv-x="1986" vert-adv-y="2263" 
 />
    <glyph glyph-name="Korea1.8604" unicode="&#x273d;" horiz-adv-x="1986" vert-adv-y="2263" 
 />
    <glyph glyph-name="Korea1.8637" unicode="&#x2756;" horiz-adv-x="1986" vert-adv-y="2263" 
 />
    <glyph glyph-name="Korea1.8673" unicode="&#x2776;" horiz-adv-x="1986" vert-adv-y="2263" 
 />
    <glyph glyph-name="Korea1.8674" unicode="&#x2777;" horiz-adv-x="1986" vert-adv-y="2263" 
 />
    <glyph glyph-name="Korea1.8675" unicode="&#x2778;" horiz-adv-x="1986" vert-adv-y="2263" 
 />
    <glyph glyph-name="Korea1.8676" unicode="&#x2779;" horiz-adv-x="1986" vert-adv-y="2263" 
 />
    <glyph glyph-name="Korea1.8677" unicode="&#x277a;" horiz-adv-x="1986" vert-adv-y="2263" 
 />
    <glyph glyph-name="Korea1.8678" unicode="&#x277b;" horiz-adv-x="1986" vert-adv-y="2263" 
 />
    <glyph glyph-name="Korea1.8679" unicode="&#x277c;" horiz-adv-x="1986" vert-adv-y="2263" 
 />
    <glyph glyph-name="Korea1.8680" unicode="&#x277d;" horiz-adv-x="1986" vert-adv-y="2263" 
 />
    <glyph glyph-name="Korea1.8681" unicode="&#x277e;" horiz-adv-x="1986" vert-adv-y="2263" 
 />
    <glyph glyph-name="Korea1.8682" unicode="&#x277f;" horiz-adv-x="1986" vert-adv-y="2263" 
 />
    <glyph glyph-name="Korea1.8342" unicode="&#x278a;" horiz-adv-x="1986" vert-adv-y="2263" 
 />
    <glyph glyph-name="Korea1.8343" unicode="&#x278b;" horiz-adv-x="1986" vert-adv-y="2263" 
 />
    <glyph glyph-name="Korea1.8344" unicode="&#x278c;" horiz-adv-x="1986" vert-adv-y="2263" 
 />
    <glyph glyph-name="Korea1.8345" unicode="&#x278d;" horiz-adv-x="1986" vert-adv-y="2263" 
 />
    <glyph glyph-name="Korea1.8346" unicode="&#x278e;" horiz-adv-x="1986" vert-adv-y="2263" 
 />
    <glyph glyph-name="Korea1.8347" unicode="&#x278f;" horiz-adv-x="1986" vert-adv-y="2263" 
 />
    <glyph glyph-name="Korea1.8348" unicode="&#x2790;" horiz-adv-x="1986" vert-adv-y="2263" 
 />
    <glyph glyph-name="Korea1.8349" unicode="&#x2791;" horiz-adv-x="1986" vert-adv-y="2263" 
 />
    <glyph glyph-name="Korea1.8350" unicode="&#x2792;" horiz-adv-x="1986" vert-adv-y="2263" 
 />
    <glyph glyph-name="Korea1.8351" unicode="&#x2793;" horiz-adv-x="1986" vert-adv-y="2263" 
 />
    <glyph glyph-name="Korea1.8485" unicode="&#x2ac5;" horiz-adv-x="1986" vert-adv-y="2263" 
 />
    <glyph glyph-name="Korea1.8487" unicode="&#x2ac6;" horiz-adv-x="1986" vert-adv-y="2263" 
 />
    <glyph glyph-name="Korea1.6460" unicode="&#x2f00;" horiz-adv-x="1986" vert-adv-y="2263" 
 />
    <glyph glyph-name="Korea1.6380" unicode="&#x2f04;" horiz-adv-x="1986" vert-adv-y="2263" 
 />
    <glyph glyph-name="Korea1.6413" unicode="&#x2f06;" horiz-adv-x="1986" vert-adv-y="2263" 
 />
    <glyph glyph-name="Korea1.6443" unicode="&#x2f08;" horiz-adv-x="1986" vert-adv-y="2263" 
 />
    <glyph glyph-name="Korea1.6477" unicode="&#x2f0a;" horiz-adv-x="1986" vert-adv-y="2263" 
 />
    <glyph glyph-name="Korea1.7499" unicode="&#x2f0b;" horiz-adv-x="1986" vert-adv-y="2263" 
 />
    <glyph glyph-name="Korea1.4270" unicode="&#x2f11;" horiz-adv-x="1986" vert-adv-y="2263" 
 />
    <glyph glyph-name="Korea1.4458" unicode="&#x2f12;" horiz-adv-x="1986" vert-adv-y="2263" 
 />
    <glyph glyph-name="Korea1.5183" unicode="&#x2f14;" horiz-adv-x="1986" vert-adv-y="2263" 
 />
    <glyph glyph-name="Korea1.5772" unicode="&#x2f17;" horiz-adv-x="1986" vert-adv-y="2263" 
 />
    <glyph glyph-name="Korea1.5077" unicode="&#x2f18;" horiz-adv-x="1986" vert-adv-y="2263" 
 />
    <glyph glyph-name="Korea1.6201" unicode="&#x2f1c;" horiz-adv-x="1986" vert-adv-y="2263" 
 />
    <glyph glyph-name="Korea1.3901" unicode="&#x2f1d;" horiz-adv-x="1986" vert-adv-y="2263" 
 />
    <glyph glyph-name="Korea1.7451" unicode="&#x2f1f;" horiz-adv-x="1986" vert-adv-y="2263" 
 />
    <glyph glyph-name="Korea1.5255" unicode="&#x2f20;" horiz-adv-x="1986" vert-adv-y="2263" 
 />
    <glyph glyph-name="Korea1.5403" unicode="&#x2f23;" horiz-adv-x="1986" vert-adv-y="2263" 
 />
    <glyph glyph-name="Korea1.4253" unicode="&#x2f24;" horiz-adv-x="1986" vert-adv-y="2263" 
 />
    <glyph glyph-name="Korea1.4159" unicode="&#x2f25;" horiz-adv-x="1986" vert-adv-y="2263" 
 />
    <glyph glyph-name="Korea1.6488" unicode="&#x2f26;" horiz-adv-x="1986" vert-adv-y="2263" 
 />
    <glyph glyph-name="Korea1.7247" unicode="&#x2f28;" horiz-adv-x="1986" vert-adv-y="2263" 
 />
    <glyph glyph-name="Korea1.5504" unicode="&#x2f29;" horiz-adv-x="1986" vert-adv-y="2263" 
 />
    <glyph glyph-name="Korea1.5697" unicode="&#x2f2b;" horiz-adv-x="1986" vert-adv-y="2263" 
 />
    <glyph glyph-name="Korea1.5305" unicode="&#x2f2d;" horiz-adv-x="1986" vert-adv-y="2263" 
 />
    <glyph glyph-name="Korea1.3791" unicode="&#x2f2f;" horiz-adv-x="1986" vert-adv-y="2263" 
 />
    <glyph glyph-name="Korea1.4077" unicode="&#x2f30;" horiz-adv-x="1986" vert-adv-y="2263" 
 />
    <glyph glyph-name="Korea1.3604" unicode="&#x2f31;" horiz-adv-x="1986" vert-adv-y="2263" 
 />
    <glyph glyph-name="Korea1.3481" unicode="&#x2f32;" horiz-adv-x="1986" vert-adv-y="2263" 
 />
    <glyph glyph-name="Korea1.3964" unicode="&#x2f38;" horiz-adv-x="1986" vert-adv-y="2263" 
 />
    <glyph glyph-name="Korea1.5764" unicode="&#x2f3c;" horiz-adv-x="1986" vert-adv-y="2263" 
 />
    <glyph glyph-name="Korea1.3804" unicode="&#x2f3d;" horiz-adv-x="1986" vert-adv-y="2263" 
 />
    <glyph glyph-name="Korea1.7808" unicode="&#x2f3e;" horiz-adv-x="1986" vert-adv-y="2263" 
 />
    <glyph glyph-name="Korea1.5580" unicode="&#x2f3f;" horiz-adv-x="1986" vert-adv-y="2263" 
 />
    <glyph glyph-name="Korea1.6951" unicode="&#x2f40;" horiz-adv-x="1986" vert-adv-y="2263" 
 />
    <glyph glyph-name="Korea1.4840" unicode="&#x2f42;" horiz-adv-x="1986" vert-adv-y="2263" 
 />
    <glyph glyph-name="Korea1.4349" unicode="&#x2f43;" horiz-adv-x="1986" vert-adv-y="2263" 
 />
    <glyph glyph-name="Korea1.4027" unicode="&#x2f44;" horiz-adv-x="1986" vert-adv-y="2263" 
 />
    <glyph glyph-name="Korea1.4950" unicode="&#x2f45;" horiz-adv-x="1986" vert-adv-y="2263" 
 />
    <glyph glyph-name="Korea1.4819" unicode="&#x2f46;" horiz-adv-x="1986" vert-adv-y="2263" 
 />
    <glyph glyph-name="Korea1.6464" unicode="&#x2f47;" horiz-adv-x="1986" vert-adv-y="2263" 
 />
    <glyph glyph-name="Korea1.6125" unicode="&#x2f48;" horiz-adv-x="1986" vert-adv-y="2263" 
 />
    <glyph glyph-name="Korea1.6281" unicode="&#x2f49;" horiz-adv-x="1986" vert-adv-y="2263" 
 />
    <glyph glyph-name="Korea1.4788" unicode="&#x2f4a;" horiz-adv-x="1986" vert-adv-y="2263" 
 />
    <glyph glyph-name="Korea1.8027" unicode="&#x2f4b;" horiz-adv-x="1986" vert-adv-y="2263" 
 />
    <glyph glyph-name="Korea1.6956" unicode="&#x2f4c;" horiz-adv-x="1986" vert-adv-y="2263" 
 />
    <glyph glyph-name="Korea1.4822" unicode="&#x2f4f;" horiz-adv-x="1986" vert-adv-y="2263" 
 />
    <glyph glyph-name="Korea1.5196" unicode="&#x2f50;" horiz-adv-x="1986" vert-adv-y="2263" 
 />
    <glyph glyph-name="Korea1.4776" unicode="&#x2f51;" horiz-adv-x="1986" vert-adv-y="2263" 
 />
    <glyph glyph-name="Korea1.5774" unicode="&#x2f52;" horiz-adv-x="1986" vert-adv-y="2263" 
 />
    <glyph glyph-name="Korea1.5587" unicode="&#x2f54;" horiz-adv-x="1986" vert-adv-y="2263" 
 />
    <glyph glyph-name="Korea1.7867" unicode="&#x2f55;" horiz-adv-x="1986" vert-adv-y="2263" 
 />
    <glyph glyph-name="Korea1.6803" unicode="&#x2f56;" horiz-adv-x="1986" vert-adv-y="2263" 
 />
    <glyph glyph-name="Korea1.5129" unicode="&#x2f57;" horiz-adv-x="1986" vert-adv-y="2263" 
 />
    <glyph glyph-name="Korea1.7962" unicode="&#x2f58;" horiz-adv-x="1986" vert-adv-y="2263" 
 />
    <glyph glyph-name="Korea1.7521" unicode="&#x2f5a;" horiz-adv-x="1986" vert-adv-y="2263" 
 />
    <glyph glyph-name="Korea1.5782" unicode="&#x2f5b;" horiz-adv-x="1986" vert-adv-y="2263" 
 />
    <glyph glyph-name="Korea1.6210" unicode="&#x2f5c;" horiz-adv-x="1986" vert-adv-y="2263" 
 />
    <glyph glyph-name="Korea1.3639" unicode="&#x2f5d;" horiz-adv-x="1986" vert-adv-y="2263" 
 />
    <glyph glyph-name="Korea1.7741" unicode="&#x2f5e;" horiz-adv-x="1986" vert-adv-y="2263" 
 />
    <glyph glyph-name="Korea1.6081" unicode="&#x2f5f;" horiz-adv-x="1986" vert-adv-y="2263" 
 />
    <glyph glyph-name="Korea1.3806" unicode="&#x2f60;" horiz-adv-x="1986" vert-adv-y="2263" 
 />
    <glyph glyph-name="Korea1.6100" unicode="&#x2f61;" horiz-adv-x="1986" vert-adv-y="2263" 
 />
    <glyph glyph-name="Korea1.3521" unicode="&#x2f62;" horiz-adv-x="1986" vert-adv-y="2263" 
 />
    <glyph glyph-name="Korea1.5370" unicode="&#x2f63;" horiz-adv-x="1986" vert-adv-y="2263" 
 />
    <glyph glyph-name="Korea1.6189" unicode="&#x2f64;" horiz-adv-x="1986" vert-adv-y="2263" 
 />
    <glyph glyph-name="Korea1.6664" unicode="&#x2f65;" horiz-adv-x="1986" vert-adv-y="2263" 
 />
    <glyph glyph-name="Korea1.7610" unicode="&#x2f66;" horiz-adv-x="1986" vert-adv-y="2263" 
 />
    <glyph glyph-name="Korea1.4993" unicode="&#x2f69;" horiz-adv-x="1986" vert-adv-y="2263" 
 />
    <glyph glyph-name="Korea1.7600" unicode="&#x2f6a;" horiz-adv-x="1986" vert-adv-y="2263" 
 />
    <glyph glyph-name="Korea1.4755" unicode="&#x2f6b;" horiz-adv-x="1986" vert-adv-y="2263" 
 />
    <glyph glyph-name="Korea1.4791" unicode="&#x2f6c;" horiz-adv-x="1986" vert-adv-y="2263" 
 />
    <glyph glyph-name="Korea1.4781" unicode="&#x2f6d;" horiz-adv-x="1986" vert-adv-y="2263" 
 />
    <glyph glyph-name="Korea1.5709" unicode="&#x2f6e;" horiz-adv-x="1986" vert-adv-y="2263" 
 />
    <glyph glyph-name="Korea1.5413" unicode="&#x2f6f;" horiz-adv-x="1986" vert-adv-y="2263" 
 />
    <glyph glyph-name="Korea1.5710" unicode="&#x2f70;" horiz-adv-x="1986" vert-adv-y="2263" 
 />
    <glyph glyph-name="Korea1.7870" unicode="&#x2f72;" horiz-adv-x="1986" vert-adv-y="2263" 
 />
    <glyph glyph-name="Korea1.7755" unicode="&#x2f73;" horiz-adv-x="1986" vert-adv-y="2263" 
 />
    <glyph glyph-name="Korea1.4653" unicode="&#x2f74;" horiz-adv-x="1986" vert-adv-y="2263" 
 />
    <glyph glyph-name="Korea1.6900" unicode="&#x2f75;" horiz-adv-x="1986" vert-adv-y="2263" 
 />
    <glyph glyph-name="Korea1.4863" unicode="&#x2f76;" horiz-adv-x="1986" vert-adv-y="2263" 
 />
    <glyph glyph-name="Korea1.5132" unicode="&#x2f78;" horiz-adv-x="1986" vert-adv-y="2263" 
 />
    <glyph glyph-name="Korea1.5896" unicode="&#x2f7a;" horiz-adv-x="1986" vert-adv-y="2263" 
 />
    <glyph glyph-name="Korea1.6218" unicode="&#x2f7b;" horiz-adv-x="1986" vert-adv-y="2263" 
 />
    <glyph glyph-name="Korea1.4519" unicode="&#x2f7c;" horiz-adv-x="1986" vert-adv-y="2263" 
 />
    <glyph glyph-name="Korea1.6427" unicode="&#x2f7d;" horiz-adv-x="1986" vert-adv-y="2263" 
 />
    <glyph glyph-name="Korea1.6428" unicode="&#x2f7f;" horiz-adv-x="1986" vert-adv-y="2263" 
 />
    <glyph glyph-name="Korea1.6368" unicode="&#x2f80;" horiz-adv-x="1986" vert-adv-y="2263" 
 />
    <glyph glyph-name="Korea1.6357" unicode="&#x2f81;" horiz-adv-x="1986" vert-adv-y="2263" 
 />
    <glyph glyph-name="Korea1.5749" unicode="&#x2f82;" horiz-adv-x="1986" vert-adv-y="2263" 
 />
    <glyph glyph-name="Korea1.6502" unicode="&#x2f83;" horiz-adv-x="1986" vert-adv-y="2263" 
 />
    <glyph glyph-name="Korea1.6967" unicode="&#x2f84;" horiz-adv-x="1986" vert-adv-y="2263" 
 />
    <glyph glyph-name="Korea1.3930" unicode="&#x2f85;" horiz-adv-x="1986" vert-adv-y="2263" 
 />
    <glyph glyph-name="Korea1.5456" unicode="&#x2f86;" horiz-adv-x="1986" vert-adv-y="2263" 
 />
    <glyph glyph-name="Korea1.7158" unicode="&#x2f87;" horiz-adv-x="1986" vert-adv-y="2263" 
 />
    <glyph glyph-name="Korea1.6888" unicode="&#x2f88;" horiz-adv-x="1986" vert-adv-y="2263" 
 />
    <glyph glyph-name="Korea1.3496" unicode="&#x2f89;" horiz-adv-x="1986" vert-adv-y="2263" 
 />
    <glyph glyph-name="Korea1.5368" unicode="&#x2f8a;" horiz-adv-x="1986" vert-adv-y="2263" 
 />
    <glyph glyph-name="Korea1.7232" unicode="&#x2f8b;" horiz-adv-x="1986" vert-adv-y="2263" 
 />
    <glyph glyph-name="Korea1.7756" unicode="&#x2f8e;" horiz-adv-x="1986" vert-adv-y="2263" 
 />
    <glyph glyph-name="Korea1.7709" unicode="&#x2f8f;" horiz-adv-x="1986" vert-adv-y="2263" 
 />
    <glyph glyph-name="Korea1.6409" unicode="&#x2f90;" horiz-adv-x="1986" vert-adv-y="2263" 
 />
    <glyph glyph-name="Korea1.3644" unicode="&#x2f92;" horiz-adv-x="1986" vert-adv-y="2263" 
 />
    <glyph glyph-name="Korea1.3474" unicode="&#x2f93;" horiz-adv-x="1986" vert-adv-y="2263" 
 />
    <glyph glyph-name="Korea1.5921" unicode="&#x2f94;" horiz-adv-x="1986" vert-adv-y="2263" 
 />
    <glyph glyph-name="Korea1.3772" unicode="&#x2f95;" horiz-adv-x="1986" vert-adv-y="2263" 
 />
    <glyph glyph-name="Korea1.4355" unicode="&#x2f96;" horiz-adv-x="1986" vert-adv-y="2263" 
 />
    <glyph glyph-name="Korea1.5718" unicode="&#x2f97;" horiz-adv-x="1986" vert-adv-y="2263" 
 />
    <glyph glyph-name="Korea1.7512" unicode="&#x2f99;" horiz-adv-x="1986" vert-adv-y="2263" 
 />
    <glyph glyph-name="Korea1.6636" unicode="&#x2f9a;" horiz-adv-x="1986" vert-adv-y="2263" 
 />
    <glyph glyph-name="Korea1.6892" unicode="&#x2f9b;" horiz-adv-x="1986" vert-adv-y="2263" 
 />
    <glyph glyph-name="Korea1.6830" unicode="&#x2f9c;" horiz-adv-x="1986" vert-adv-y="2263" 
 />
    <glyph glyph-name="Korea1.5755" unicode="&#x2f9d;" horiz-adv-x="1986" vert-adv-y="2263" 
 />
    <glyph glyph-name="Korea1.7053" unicode="&#x2f9e;" horiz-adv-x="1986" vert-adv-y="2263" 
 />
    <glyph glyph-name="Korea1.5756" unicode="&#x2f9f;" horiz-adv-x="1986" vert-adv-y="2263" 
 />
    <glyph glyph-name="Korea1.7009" unicode="&#x2fa0;" horiz-adv-x="1986" vert-adv-y="2263" 
 />
    <glyph glyph-name="Korea1.6389" unicode="&#x2fa2;" horiz-adv-x="1986" vert-adv-y="2263" 
 />
    <glyph glyph-name="Korea1.6352" unicode="&#x2fa3;" horiz-adv-x="1986" vert-adv-y="2263" 
 />
    <glyph glyph-name="Korea1.4634" unicode="&#x2fa5;" horiz-adv-x="1986" vert-adv-y="2263" 
 />
    <glyph glyph-name="Korea1.4131" unicode="&#x2fa6;" horiz-adv-x="1986" vert-adv-y="2263" 
 />
    <glyph glyph-name="Korea1.6568" unicode="&#x2fa7;" horiz-adv-x="1986" vert-adv-y="2263" 
 />
    <glyph glyph-name="Korea1.4846" unicode="&#x2fa8;" horiz-adv-x="1986" vert-adv-y="2263" 
 />
    <glyph glyph-name="Korea1.5147" unicode="&#x2fa9;" horiz-adv-x="1986" vert-adv-y="2263" 
 />
    <glyph glyph-name="Korea1.6227" unicode="&#x2fac;" horiz-adv-x="1986" vert-adv-y="2263" 
 />
    <glyph glyph-name="Korea1.7203" unicode="&#x2fad;" horiz-adv-x="1986" vert-adv-y="2263" 
 />
    <glyph glyph-name="Korea1.5220" unicode="&#x2fae;" horiz-adv-x="1986" vert-adv-y="2263" 
 />
    <glyph glyph-name="Korea1.4744" unicode="&#x2faf;" horiz-adv-x="1986" vert-adv-y="2263" 
 />
    <glyph glyph-name="Korea1.7733" unicode="&#x2fb0;" horiz-adv-x="1986" vert-adv-y="2263" 
 />
    <glyph glyph-name="Korea1.6307" unicode="&#x2fb1;" horiz-adv-x="1986" vert-adv-y="2263" 
 />
    <glyph glyph-name="Korea1.6385" unicode="&#x2fb3;" horiz-adv-x="1986" vert-adv-y="2263" 
 />
    <glyph glyph-name="Korea1.7757" unicode="&#x2fb4;" horiz-adv-x="1986" vert-adv-y="2263" 
 />
    <glyph glyph-name="Korea1.7595" unicode="&#x2fb5;" horiz-adv-x="1986" vert-adv-y="2263" 
 />
    <glyph glyph-name="Korea1.5221" unicode="&#x2fb6;" horiz-adv-x="1986" vert-adv-y="2263" 
 />
    <glyph glyph-name="Korea1.5733" unicode="&#x2fb7;" horiz-adv-x="1986" vert-adv-y="2263" 
 />
    <glyph glyph-name="Korea1.5625" unicode="&#x2fb8;" horiz-adv-x="1986" vert-adv-y="2263" 
 />
    <glyph glyph-name="Korea1.7718" unicode="&#x2fb9;" horiz-adv-x="1986" vert-adv-y="2263" 
 />
    <glyph glyph-name="Korea1.4661" unicode="&#x2fba;" horiz-adv-x="1986" vert-adv-y="2263" 
 />
    <glyph glyph-name="Korea1.3785" unicode="&#x2fbb;" horiz-adv-x="1986" vert-adv-y="2263" 
 />
    <glyph glyph-name="Korea1.3765" unicode="&#x2fbc;" horiz-adv-x="1986" vert-adv-y="2263" 
 />
    <glyph glyph-name="Korea1.3993" unicode="&#x2fc1;" horiz-adv-x="1986" vert-adv-y="2263" 
 />
    <glyph glyph-name="Korea1.5910" unicode="&#x2fc2;" horiz-adv-x="1986" vert-adv-y="2263" 
 />
    <glyph glyph-name="Korea1.6827" unicode="&#x2fc3;" horiz-adv-x="1986" vert-adv-y="2263" 
 />
    <glyph glyph-name="Korea1.4527" unicode="&#x2fc4;" horiz-adv-x="1986" vert-adv-y="2263" 
 />
    <glyph glyph-name="Korea1.4533" unicode="&#x2fc5;" horiz-adv-x="1986" vert-adv-y="2263" 
 />
    <glyph glyph-name="Korea1.4726" unicode="&#x2fc6;" horiz-adv-x="1986" vert-adv-y="2263" 
 />
    <glyph glyph-name="Korea1.4663" unicode="&#x2fc7;" horiz-adv-x="1986" vert-adv-y="2263" 
 />
    <glyph glyph-name="Korea1.7927" unicode="&#x2fc8;" horiz-adv-x="1986" vert-adv-y="2263" 
 />
    <glyph glyph-name="Korea1.5401" unicode="&#x2fc9;" horiz-adv-x="1986" vert-adv-y="2263" 
 />
    <glyph glyph-name="Korea1.8018" unicode="&#x2fca;" horiz-adv-x="1986" vert-adv-y="2263" 
 />
    <glyph glyph-name="Korea1.6758" unicode="&#x2fcd;" horiz-adv-x="1986" vert-adv-y="2263" 
 />
    <glyph glyph-name="Korea1.3766" unicode="&#x2fce;" horiz-adv-x="1986" vert-adv-y="2263" 
 />
    <glyph glyph-name="Korea1.5402" unicode="&#x2fcf;" horiz-adv-x="1986" vert-adv-y="2263" 
 />
    <glyph glyph-name="Korea1.5222" unicode="&#x2fd0;" horiz-adv-x="1986" vert-adv-y="2263" 
 />
    <glyph glyph-name="Korea1.6781" unicode="&#x2fd1;" horiz-adv-x="1986" vert-adv-y="2263" 
 />
    <glyph glyph-name="Korea1.7359" unicode="&#x2fd2;" horiz-adv-x="1986" vert-adv-y="2263" 
 />
    <glyph glyph-name="Korea1.4563" unicode="&#x2fd3;" horiz-adv-x="1986" vert-adv-y="2263" 
 />
    <glyph glyph-name="Korea1.3946" unicode="&#x2fd4;" horiz-adv-x="1986" vert-adv-y="2263" 
 />
    <glyph glyph-name="Korea1.101" unicode="&#x3000;" vert-adv-y="2263" 
 />
    <glyph glyph-name="Korea1.102" unicode="&#x3001;" vert-adv-y="2263" 
d="M680 -88l-176 -162q-180 246 -410 426l162 152q234 -174 424 -416z" />
    <glyph glyph-name="Korea1.103" unicode="&#x3002;" vert-adv-y="2263" 
d="M674 80q0 -133 -90 -223t-229 -90q-140 0 -229 90t-89 223t89 222t230 89q142 0 230 -89t88 -222zM355 248q-75 0 -117 -48t-43 -121t41 -120t118 -47t121 48t45 119t-45 120t-120 49z" />
    <glyph glyph-name="Korea1.108" unicode="&#x3003;" vert-adv-y="2263" 
d="M1096 922h282l-323 -654h-176zM702 922h283l-323 -654h-177z" />
    <glyph glyph-name="Korea1.120" unicode="&#x3008;" horiz-adv-x="956" vert-adv-y="2263" 
d="M242 616l639 -809l-105 -81l-698 890l696 891l107 -77z" />
    <glyph glyph-name="Korea1.121" unicode="&#x3009;" horiz-adv-x="976" vert-adv-y="2263" 
d="M190 1507l699 -891l-696 -890l-111 81l639 809l-639 814z" />
    <glyph glyph-name="Korea1.122" unicode="&#x300a;" horiz-adv-x="1032" vert-adv-y="2263" 
d="M207 616l500 -864l-113 -61l-535 925l535 930l113 -65zM479 616l498 -864l-109 -61l-538 925l538 930l109 -65z" />
    <glyph glyph-name="Korea1.123" unicode="&#x300b;" horiz-adv-x="1036" vert-adv-y="2263" 
d="M164 1546l534 -930l-534 -925l-113 61l502 864q-162 289 -502 865zM825 616l-499 865l108 65l539 -930l-539 -925l-108 61z" />
    <glyph glyph-name="Korea1.124" unicode="&#x300c;" horiz-adv-x="718" vert-adv-y="2263" 
d="M672 1575v-154h-451v-743h-174v897h625z" />
    <glyph glyph-name="Korea1.125" unicode="&#x300d;" horiz-adv-x="718" vert-adv-y="2263" 
d="M672 555v-897h-625v154h451v743h174z" />
    </font>
</defs>
</svg>
