<?xml version="1.0" standalone="no"?>
<!DOCTYPE svg PUBLIC "-//W3C//DTD SVG 1.1//EN" "http://www.w3.org/Graphics/SVG/1.1/DTD/svg11.dtd" >
<svg xmlns="http://www.w3.org/2000/svg">
<metadata>
Created by FontPrep 20130207 at Sun Mar 19 14:12:06 2017
 By Ahover
</metadata>
<defs>
<font id="9e23ceb0c858ca37642ba540402577eb" horiz-adv-x='1024' >
  <font-face 
    font-family="NanumSquareOTFR00"
    font-weight="400"
    font-stretch="normal"
    units-per-em="2048"
    panose-1="2 0 5 3 0 0 0 0 0 0"
    ascent="1638"
    descent="-410"
    x-height="1051"
    cap-height="1423"
    bbox="-143 -510 2378 1704"
    underline-thickness="102"
    underline-position="-205"
    unicode-range="U+0001-FFE6"
  />
<missing-glyph horiz-adv-x="1863" 
d="M1751 1550v-1843h-1638v1843h1638zM1618 -219l-686 788l-686 -788h1372zM195 1417v-1573l684 787zM248 1477l682 -787l684 787h-1366zM1669 -158v1577l-684 -790z" />
    <glyph glyph-name=".notdef" horiz-adv-x="1863" 
d="M1751 1550v-1843h-1638v1843h1638zM1618 -219l-686 788l-686 -788h1372zM195 1417v-1573l684 787zM248 1477l682 -787l684 787h-1366zM1669 -158v1577l-684 -790z" />
    <glyph glyph-name=".null" horiz-adv-x="0" vert-adv-y="0" 
 />
    <glyph glyph-name="nonmarkingreturn" horiz-adv-x="681" 
 />
    <glyph glyph-name="Korea1.1" horiz-adv-x="512" 
 />
    <glyph glyph-name="Korea1.2" unicode="!" horiz-adv-x="573" 
d="M188 -111v201h197v-201h-197zM346 303h-119l-24 1159h168z" />
    <glyph glyph-name="Korea1.3" unicode="&#x22;" horiz-adv-x="763" 
d="M295 999h-119l-20 496h159zM588 999h-119l-20 496h159z" />
    <glyph glyph-name="Korea1.4" unicode="#" horiz-adv-x="1198" 
d="M1067 522v-125h-242l-63 -450h-117l64 450h-291l-62 -450h-118l63 450h-223v125h239l48 336h-224v125h242l61 440h117l-61 -440h288l62 440h119l-64 -440h225v-125h-241l-47 -336h225zM725 522l47 336h-291l-47 -336h291z" />
    <glyph glyph-name="Korea1.5" unicode="$" horiz-adv-x="1236" 
d="M567 -190v153q-262 12 -454 162l73 113q182 -135 381 -150v553q-231 53 -329 140t-99 225v45q0 155 116 249t312 107v131h113v-131q221 -14 383 -125l-70 -102q-125 86 -313 100v-524q246 -60 344 -148t98 -233v-45q0 -150 -118 -250t-324 -115v-155h-113zM981 371
q0 88 -65 144t-236 101v-526q141 14 221 80t80 160v41zM281 1012q0 -84 62 -135t224 -95v498q-129 -10 -208 -72t-78 -161v-35z" />
    <glyph glyph-name="Korea1.6" unicode="%" horiz-adv-x="1779" 
d="M514 -51h-131l883 1474h129zM1318 702q150 0 234 -89t84 -251v-92q0 -162 -84 -251t-234 -89t-234 89t-83 251v92q0 162 83.5 251t233.5 89zM1319 35q199 0 199 239v84q0 240 -199 240t-199 -240v-84q0 -239 199 -239zM460 1440q150 0 234 -89t84 -251v-92
q0 -162 -84 -251t-234 -89t-234 89t-83 251v92q0 162 83.5 251t233.5 89zM461 772q199 0 198 240v84q0 240 -198 239q-199 0 -199 -239v-84q0 -240 199 -240z" />
    <glyph glyph-name="Korea1.7" unicode="&#x26;" horiz-adv-x="1359" 
d="M1110 711h133q0 -297 -143 -504l221 -260h-164l-139 164q-178 -186 -459 -187h-12q-195 0 -334 98t-139 265v49q0 137 84 232t299 204l-39 47q-53 63 -77 93t-54 95q-31 65 -31 121v37q0 109 95 195t255 86t259 -87t100 -194v-39q0 -104 -71 -196t-245 -193l365 -430
q96 164 96 404zM555 47q236 0 383 160l-399 469q-182 -96 -255 -169t-73 -179v-35q-1 -100 99 -173t245 -73zM831 1135v22q0 72 -64 121q-65 49 -157 49t-156 -49t-65 -121v-22q1 -79 73 -171q8 -10 26 -36t48.5 -57.5t32.5 -41.5q154 82 208 155t54 151z" />
    <glyph glyph-name="Korea1.8" unicode="'" horiz-adv-x="471" 
d="M295 999h-119l-20 496h159z" />
    <glyph glyph-name="Korea1.9" unicode="(" horiz-adv-x="641" 
d="M309 664v-103q0 -524 281 -909h-131q-301 358 -301 919v82q0 557 301 916h131q-281 -379 -281 -905z" />
    <glyph glyph-name="Korea1.10" unicode=")" horiz-adv-x="641" 
d="M332 561v103q0 526 -281 905h131q301 -358 301 -916v-82q0 -561 -301 -919h-131q281 385 281 909z" />
    <glyph glyph-name="Korea1.11" unicode="*" horiz-adv-x="940" 
d="M418 1006l-262 -170l-64 116l291 142l-291 139l64 117l260 -170l-13 313h136l-15 -313l262 170l62 -117l-291 -139l291 -142l-62 -116l-262 170l15 -312h-136z" />
    <glyph glyph-name="Korea1.12" unicode="+" horiz-adv-x="1228" 
d="M547 1163h135v-444h436v-131h-436v-473h-135v473h-436v131h436v444z" />
    <glyph glyph-name="Korea1.13" unicode="," horiz-adv-x="501" 
d="M96 -358l86 460h180l-147 -460h-119z" />
    <glyph glyph-name="Korea1.14" unicode="-" horiz-adv-x="843" 
d="M102 618v132h639v-132h-639z" />
    <glyph glyph-name="Korea1.15" unicode="." horiz-adv-x="501" 
d="M147 -113v205h207v-205h-207z" />
    <glyph glyph-name="Korea1.16" unicode="/" horiz-adv-x="796" 
d="M637 1554h139l-618 -1810h-138z" />
    <glyph glyph-name="Korea1.17" unicode="0" horiz-adv-x="1228" 
d="M1116 801v-230q0 -323 -122 -485t-382 -162q-500 0 -499 647v230q0 645 499 645q504 0 504 -645zM969 569v234q0 268 -88 391t-269 123q-352 0 -352 -514v-234q0 -268 89 -392t266 -124t266 123q88 123 88 393z" />
    <glyph glyph-name="Korea1.18" unicode="1" horiz-adv-x="1228" 
d="M780 -53h-143v1296l-356 -217l-66 115l457 282h108v-1476z" />
    <glyph glyph-name="Korea1.19" unicode="2" horiz-adv-x="1228" 
d="M897 1059v16q0 111 -74 175t-207 65q-217 0 -342 -223l-114 71q156 283 452 283q197 0 314 -101t116 -268v-20q0 -117 -70 -218t-175 -223l-459 -538h758v-131h-938v123l551 645q115 133 151 207q37 74 37 137z" />
    <glyph glyph-name="Korea1.20" unicode="3" horiz-adv-x="1228" 
d="M598 1446q200 0 318 -101t118 -268v-20q0 -101 -59 -193t-195 -139q150 -25 231 -118t81 -226v-31q0 -178 -122 -302t-381 -124t-466 164l72 115q203 -147 391 -147t276 86t88 206v27q0 149 -104 215t-238 65h-166v123h172q129 0 202 87t73 194v16q0 111 -78 175t-211 65
q-206 0 -315 -172l-113 74q143 229 426 229z" />
    <glyph glyph-name="Korea1.21" unicode="4" horiz-adv-x="1228" 
d="M819 870h144v-464h217v-132h-217v-327h-144v327h-739v132l717 1017h164l-715 -1017h573v464z" />
    <glyph glyph-name="Korea1.22" unicode="5" horiz-adv-x="1228" 
d="M973 391q0 340 -334 340q-170 0 -291 -117h-135l47 809h760v-131h-633l-22 -536q49 48 134 76t175 28q212 0 326 -129t114 -334v-30q0 -167 -110 -299q-56 -66 -156 -105t-234 -39q-266 0 -479 164l74 117q195 -151 390 -151t285 96t89 215v26z" />
    <glyph glyph-name="Korea1.23" unicode="6" horiz-adv-x="1228" 
d="M676 1317q-199 0 -290 -157t-110 -466q40 80 136 144t237 63q197 0 333 -124t136 -333v-49q0 -215 -136 -343t-352 -128t-356 153q-139 153 -139 447v49q0 459 139 666t404 207q199 0 379 -100l-68 -117q-152 88 -313 88zM291 424q0 -166 94 -268t247 -102t249 92t96 255
v31q0 160 -100 252q-101 92 -239 92t-242 -94t-105 -231v-27z" />
    <glyph glyph-name="Korea1.24" unicode="7" horiz-adv-x="1228" 
d="M127 1292v131h989v-110l-598 -1366h-162l600 1345h-829z" />
    <glyph glyph-name="Korea1.25" unicode="8" horiz-adv-x="1228" 
d="M326 1071v-24q0 -123 80 -206t208 -83t209 83q80 83 80 206v24q0 113 -78.5 181t-210.5 68t-210 -68t-78 -181zM285 350v-24q1 -117 91 -195t240 -78t239 78t89 195v24q0 131 -92 211t-238 80t-238 -80t-91 -211zM139 322v34q0 121 75 215t196 131q-223 104 -224 342v33
q0 157 121 263t307 106t308 -106t120 -263v-33q0 -116 -58 -204t-167 -138q121 -35 197 -130t76 -216v-34q0 -176 -132 -287t-344 -111t-343.5 111t-131.5 287z" />
    <glyph glyph-name="Korea1.26" unicode="9" horiz-adv-x="1228" 
d="M553 55q215 0 302 154t97 463q-39 -80 -136 -147t-236 -66q-197 0 -333 126t-136 335v49q0 215 137 346t351 131t354 -154t141 -448v-62q0 -475 -130 -666t-415 -192q-199 1 -373 101l60 120q156 -90 317 -90zM938 913v27q0 166 -95 271t-247 105t-248 -94t-96 -259v-31
q0 -160 101 -254t239 -94t242 96t104 233z" />
    <glyph glyph-name="Korea1.27" unicode=":" horiz-adv-x="624" 
d="M209 51v205h207v-205h-207zM209 956v205h207v-205h-207z" />
    <glyph glyph-name="Korea1.28" unicode=";" horiz-adv-x="624" 
d="M209 956v205h207v-205h-207zM158 -195l86 461h180l-148 -461h-118z" />
    <glyph glyph-name="Korea1.29" unicode="&#x3c;" horiz-adv-x="1228" 
d="M297 662v-13l799 -416v-149l-963 512v121l963 512v-148z" />
    <glyph glyph-name="Korea1.30" unicode="=" horiz-adv-x="1228" 
d="M152 805v133h925v-133h-925zM152 373v133h925v-133h-925z" />
    <glyph glyph-name="Korea1.31" unicode="&#x3e;" horiz-adv-x="1228" 
d="M932 649v13l-799 419v148l963 -512v-121l-963 -512v149z" />
    <glyph glyph-name="Korea1.32" unicode="?" horiz-adv-x="1064" 
d="M385 -111v201h197v-201h-197zM553 289h-139v96q0 98 44 172t194 214q32 30 42 41t60.5 65.5t50.5 164.5v33q0 111 -76 175t-203 65q-205 0 -340 -156l-92 94q66 81 176 137t252 56q201 0 316 -99t114 -270v-35q0 -139 -86 -240q-48 -57 -107 -111t-103 -96t-74 -92
t-29 -124v-90z" />
    <glyph glyph-name="Korea1.33" unicode="@" horiz-adv-x="2013" 
d="M1540 92q-86 0 -162 45t-104 131h-2q-35 -88 -125 -130t-178 -42q-185 0 -281 104t-96 296v155q0 187 98 293t284 106t265 -130v118h145v-657q0 -82 44 -122t116 -40q231 0 232 389v23q0 354 -202 553t-589 198q-340 0 -544 -208t-203 -568v-35q0 -381 206 -593t582 -211
q332 0 584 133l57 -117q-268 -145 -635 -145q-430 0 -680 250t-250 681v39q0 397 240 648.5t662 251.5t664 -238t243 -633v-27q1 -374 -219 -485q-66 -33 -152 -33zM741 627v-107q0 -285 242 -284q115 0 183 64t69 185v205q0 88 -70 156t-182 67q-242 1 -242 -286z" />
    <glyph glyph-name="Korea1.34" unicode="A" horiz-adv-x="1347" 
d="M756 1423l547 -1476h-154l-164 459h-625l-167 -459h-148l549 1476h162zM553 930l-147 -400h534l-143 400q-61 166 -123 366q-49 -171 -121 -366z" />
    <glyph glyph-name="Korea1.35" unicode="B" horiz-adv-x="1259" 
d="M170 -53v1476h471q469 0 469 -360v-43q0 -106 -56 -185t-182 -110q142 -20 224 -105t82 -233v-51q0 -184 -119 -286t-354 -103h-535zM311 657v-583h381q340 0 340 264v45q0 141 -86 208t-299 66h-336zM631 1298h-320v-520h334q162 0 242 56t80 190v37q0 129 -80 183
t-256 54z" />
    <glyph glyph-name="Korea1.36" unicode="C" horiz-adv-x="1290" 
d="M703 1446q271 0 464 -148l-73 -112q-176 126 -386 126t-320 -142t-109 -379v-189q-1 -268 113 -404t334 -136t394 151l84 -113q-196 -176 -486 -176t-437 176t-148 502v182q-1 314 149 488t421 174z" />
    <glyph glyph-name="Korea1.37" unicode="D" horiz-adv-x="1368" 
d="M170 1423h461q283 0 441 -165t157 -467v-211q0 -303 -158 -468t-440 -165h-461v1476zM313 1296v-1222h320q207 0 330 130t122 386v190q0 256 -122 386q-123 130 -330 130h-320z" />
    <glyph glyph-name="Korea1.38" unicode="E" horiz-adv-x="1204" 
d="M170 1423h889v-127h-746v-528h703v-127h-703v-567h760v-127h-903v1476z" />
    <glyph glyph-name="Korea1.39" unicode="F" horiz-adv-x="1148" 
d="M313 -53h-143v1476h877v-127h-734v-565h691v-127h-691v-657z" />
    <glyph glyph-name="Korea1.40" unicode="G" horiz-adv-x="1343" 
d="M133 784q0 314 149 488q150 174 430 174t472 -148l-74 -112q-176 124 -394 124t-328 -140t-109 -379v-189q0 -541 456 -541q223 0 346 74v467h-348v127h488v-674q-179 -131 -485 -131t-454 175t-149 503v182z" />
    <glyph glyph-name="Korea1.41" unicode="H" horiz-adv-x="1386" 
d="M1073 -53v698h-760v-698h-143v1476h143v-635h760v635h144v-1476h-144z" />
    <glyph glyph-name="Korea1.42" unicode="I" horiz-adv-x="483" 
d="M170 -53v1476h143v-1476h-143z" />
    <glyph glyph-name="Korea1.43" unicode="J" horiz-adv-x="927" 
d="M621 1423h143v-1085q0 -414 -377 -414q-217 0 -346 113l70 117q117 -94 257 -94t196 69t57 223v1071z" />
    <glyph glyph-name="Korea1.44" unicode="K" horiz-adv-x="1318" 
d="M313 -53h-143v1476h143v-745l713 745h193l-615 -630l653 -846h-184l-571 741l-189 -194v-547z" />
    <glyph glyph-name="Korea1.45" unicode="L" horiz-adv-x="1093" 
d="M170 1423h143v-1349h740v-127h-883v1476z" />
    <glyph glyph-name="Korea1.46" unicode="M" horiz-adv-x="1687" 
d="M311 -53h-141v1476h176l500 -1081l502 1081h170v-1476h-142v1267q-16 -82 -69 -186l-396 -835h-135l-391 835q-53 106 -74 186v-1267z" />
    <glyph glyph-name="Korea1.47" unicode="N" horiz-adv-x="1394" 
d="M170 -53v1476h170l678 -1155q25 -41 69 -137v1292h138v-1476h-170l-680 1159q-41 72 -68 133v-1292h-137z" />
    <glyph glyph-name="Korea1.48" unicode="O" horiz-adv-x="1417" 
d="M133 786q0 304 152 482t423 178t424 -177t152 -483v-202q0 -305 -152 -483q-153 -177 -423 -177t-423 177t-153 483v202zM1139 774q0 260 -115 402q-116 142 -316 142t-315 -141.5t-114 -402.5v-178q1 -260 115 -402t315 -142t315 142t115 402v178z" />
    <glyph glyph-name="Korea1.49" unicode="P" horiz-adv-x="1224" 
d="M170 -53v1476h500q227 -1 350 -117t123 -305v-43q0 -186 -127 -307t-346 -121h-357v-583h-143zM657 1294h-344v-635h322q184 0 273 80t89 224v36q0 135 -86 215t-254 80z" />
    <glyph glyph-name="Korea1.50" unicode="Q" horiz-adv-x="1417" 
d="M133 786q0 304 152 482t423 178t424 -177t152 -483v-202q0 -299 -141 -471l172 -172l-92 -97l-179 179q-139 -98 -335 -99q-270 0 -423 177t-153 483v202zM1141 774q0 260 -116 402q-117 142 -317 142t-316 -141.5t-116 -402.5v-178q0 -260 116 -402t317 -141
q137 0 235 68l-190 192l92 97l194 -195q100 143 101 381v178z" />
    <glyph glyph-name="Korea1.51" unicode="R" horiz-adv-x="1290" 
d="M682 584h-369v-637h-143v1476h510q217 1 341 -111t124 -290v-31q0 -133 -71 -231t-195 -144l297 -669h-154l-285 639q-18 -2 -55 -2zM659 1294h-346v-581h324q362 0 362 284v21q0 132 -86 204t-254 72z" />
    <glyph glyph-name="Korea1.52" unicode="S" horiz-adv-x="1241" 
d="M618 57q168 0 269 75q100 75 100 179v43q-1 110 -79 170t-318 114t-340 147t-100 239v47q0 166 136 270t347 105q264 0 438 -125l-67 -117q-154 111 -371 111q-141 0 -239 -67t-99 -177v-41q0 -98 77 -158t273 -104q279 -62 383 -154t105 -256v-47q-1 -163 -139 -275
t-369 -112q-289 0 -502 164l74 121q206 -152 421 -152z" />
    <glyph glyph-name="Korea1.53" unicode="T" horiz-adv-x="1169" 
d="M41 1423h1087v-127h-473v-1349h-143v1349h-471v127z" />
    <glyph glyph-name="Korea1.54" unicode="U" horiz-adv-x="1376" 
d="M688 53q195 0 289 125t94 397v848h141v-901q0 -302 -136 -450t-389 -148t-388 148t-135 450v901h141v-848q0 -272 94 -397t289 -125z" />
    <glyph glyph-name="Korea1.55" unicode="V" horiz-adv-x="1308" 
d="M571 -53l-526 1476h158l454 -1329h2l455 1329h150l-529 -1476h-164z" />
    <glyph glyph-name="Korea1.56" unicode="W" horiz-adv-x="1961" 
d="M465 -53l-404 1476h154l332 -1323h2l352 1323h162l352 -1323h2l334 1323h150l-408 -1476h-164l-350 1310l-350 -1310h-164z" />
    <glyph glyph-name="Korea1.57" unicode="X" horiz-adv-x="1312" 
d="M1212 1423l-464 -710l495 -766h-176l-412 669l-422 -669h-163l497 768l-473 708h168l402 -618l387 618h161z" />
    <glyph glyph-name="Korea1.58" unicode="Y" horiz-adv-x="1232" 
d="M692 -53h-143v604l-508 872h162l420 -741l409 741h160l-500 -872v-604z" />
    <glyph glyph-name="Korea1.59" unicode="Z" horiz-adv-x="1222" 
d="M1110 1423v-96l-881 -1257h920v-123h-1092v112l871 1241h-822v123h1004z" />
    <glyph glyph-name="Korea1.60" unicode="[" horiz-adv-x="729" 
d="M651 -221v-127h-481v1917h481v-127h-344v-1663h344z" />
    <glyph glyph-name="Korea1.61" unicode="\" horiz-adv-x="1939" 
d="M82 723v104h201l-144 596h137l132 -596h346l143 596h147l144 -596h348l135 596h131l-145 -596h201v-104h-228l-188 -776h-156l-186 776h-262l-187 -776h-155l-189 776h-225zM1214 723l152 -623h6l139 623h-297zM432 723l139 -623h7l149 623h-295zM969 1270l-107 -443h213
z" />
    <glyph glyph-name="Korea1.62" unicode="]" horiz-adv-x="729" 
d="M78 -348v127h344v1663h-344v127h481v-1917h-481z" />
    <glyph glyph-name="Korea1.63" unicode="^" horiz-adv-x="1073" 
d="M971 821h-144l-290 537l-291 -537h-144l369 662h133z" />
    <glyph glyph-name="Korea1.64" unicode="_" horiz-adv-x="983" 
d="M983 -154v-112h-983v112h983z" />
    <glyph glyph-name="Korea1.65" unicode="`" horiz-adv-x="1228" 
d="M807 1163h-131l-254 289h170z" />
    <glyph glyph-name="Korea1.66" unicode="a" horiz-adv-x="1091" 
d="M448 -70q-144 0 -242 85t-97 231v45q0 137 101 220t288 83h311v102q0 121 -67 186t-195 64q-164 0 -326 -112l-67 106q186 131 384 131t303 -93t105 -259v-772h-135v135h-2q-35 -60 -126 -106t-235 -46zM809 477h-309q-128 0 -190 -52t-62 -140v-33q0 -100 69 -150
t177 -50t212 64t103 175v186z" />
    <glyph glyph-name="Korea1.67" unicode="b" horiz-adv-x="1185" 
d="M301 78v-131h-137v1548h139v-600q49 82 137 129t193 47q199 0 319 -125t119 -348v-195q1 -221 -121 -347t-328 -126t-319 148h-2zM932 424v154q0 174 -82 270t-215 96t-233 -85t-99 -222v-324q-1 -100 91 -180q92 -79 232 -79t223 98t83 272z" />
    <glyph glyph-name="Korea1.68" unicode="c" horiz-adv-x="1011" 
d="M575 1071q213 0 357 -108l-64 -109q-132 92 -288 92t-241 -98t-85 -270v-142q0 -180 85 -279t249 -99t309 108l66 -111q-163 -125 -385 -125t-344 133t-121 373v137q1 236 125 367t337 131z" />
    <glyph glyph-name="Korea1.69" unicode="d" horiz-adv-x="1185" 
d="M885 -53v145h-2q-43 -78 -134 -120t-194 -42q-195 0 -317 126t-123 347v195q-1 221 121 347t330 126t317 -156v580h139v-1548h-137zM254 578v-154q0 -174 84 -272t224 -98t231 74q90 75 90 214v332q0 102 -93 188q-94 86 -232 86t-221 -98t-83 -272z" />
    <glyph glyph-name="Korea1.70" unicode="e" horiz-adv-x="1116" 
d="M252 571h614v19q0 172 -80 265t-225 93t-227 -97t-82 -261v-19zM581 -70q-222 0 -345 133t-123 373v137q0 233 119 366q120 132 331 132t327 -133t116 -369v-114h-754v-19q0 -182 88 -282t258 -100t322 108l61 -107q-178 -125 -400 -125z" />
    <glyph glyph-name="Korea1.71" unicode="f" horiz-adv-x="765" 
d="M254 -53v985h-188v119h188v139q0 174 71 246t201 72t199 -27l-20 -115q-74 20 -157 20t-119 -46t-36 -156v-133h305v-119h-305v-985h-139z" />
    <glyph glyph-name="Korea1.72" unicode="g" horiz-adv-x="1185" 
d="M881 -39v152h-2q-43 -80 -133 -121t-193 -41q-195 0 -317 126t-123 347v174q0 221 121 347q122 126 317 126q115 0 200 -44t132 -112v136h137v-1086q0 -231 -120 -353t-336 -122t-363 115l63 108q76 -53 143 -72t162 -20q312 0 312 340zM252 578v-134q0 -174 84 -272
t224 -98t231 74q90 75 90 214v312q1 102 -93 188t-232 86t-221 -98t-83 -272z" />
    <glyph glyph-name="Korea1.73" unicode="h" horiz-adv-x="1191" 
d="M639 1071q185 0 291 -103t106 -278v-743h-139v708q0 289 -279 289q-133 0 -224 -89t-91 -191v-717h-139v1548h139v-598q45 72 130 123t206 51z" />
    <glyph glyph-name="Korea1.74" unicode="i" horiz-adv-x="479" 
d="M170 -53v1104h139v-1104h-139zM164 1262v155h151v-155h-151z" />
    <glyph glyph-name="Korea1.75" unicode="j" horiz-adv-x="497" 
d="M182 1262v155h152v-155h-152zM328 1051v-1239q0 -174 -71 -248t-201 -74t-199 27l20 114q74 -20 157 -20t119 47t35 160v1233h140z" />
    <glyph glyph-name="Korea1.76" unicode="k" horiz-adv-x="1105" 
d="M303 -53h-139v1548h139v-967l533 523h186l-442 -424l481 -680h-170l-410 588l-178 -173v-415z" />
    <glyph glyph-name="Korea1.77" unicode="l" horiz-adv-x="466" 
d="M164 -53v1548h139v-1548h-139z" />
    <glyph glyph-name="Korea1.78" unicode="m" horiz-adv-x="1798" 
d="M1642 690v-743h-139v706q-1 145 -53 218t-186 73t-210 -84t-81 -188v-725h-139v706q0 145 -54 218t-188 73t-211.5 -87t-77.5 -193v-717h-139v1104h137v-154q96 174 309 174q256 0 334 -201q43 82 129 142t207 59q182 0 272 -100t90 -281z" />
    <glyph glyph-name="Korea1.79" unicode="n" horiz-adv-x="1191" 
d="M639 1071q185 0 291 -103t106 -278v-743h-139v708q0 289 -279 289q-133 0 -224 -89t-91 -191v-717h-139v1104h137v-154q45 72 131 123t207 51z" />
    <glyph glyph-name="Korea1.80" unicode="o" horiz-adv-x="1163" 
d="M582 1071q221 0 345 -132t124 -370v-137q0 -238 -124 -370t-345 -132t-345 132t-124 370v137q0 240 124 371t345 131zM909 561q1 191 -85 289t-242 98t-242 -98t-86 -289v-121q0 -190 86 -288t242 -98t242 98t85 288v121z" />
    <glyph glyph-name="Korea1.81" unicode="p" horiz-adv-x="1185" 
d="M303 78v-570h-139v1543h137v-156q49 82 138 129t194 47q199 0 319 -125t119 -348v-195q-1 -221 -123 -347t-326 -126t-317 148h-2zM932 424v154q0 174 -82 270t-215 96t-233 -85t-99 -222v-324q-1 -100 91 -180q92 -79 232 -79t223 98t83 272z" />
    <glyph glyph-name="Korea1.82" unicode="q" horiz-adv-x="1185" 
d="M883 -492v584h-2q-43 -80 -133 -121t-193 -41q-195 0 -317 126t-123 347v195q0 221 122 347t316 126q115 0 200 -44t132 -112v136h137v-1543h-139zM254 578v-154q0 -174 84 -272t224 -98t231 74q90 75 90 214v332q0 102 -93 188q-94 86 -232 86t-221 -98t-83 -272z" />
    <glyph glyph-name="Korea1.83" unicode="r" horiz-adv-x="800" 
d="M600 930q-135 0 -216 -100t-81 -257v-626h-139v1104h137v-195q41 90 121 152t186 63t168 -22l-43 -142q-57 23 -133 23z" />
    <glyph glyph-name="Korea1.84" unicode="s" horiz-adv-x="1013" 
d="M788 254q0 82 -67 126t-239 77t-265 99q-92 67 -92 194v28q0 125 103 209t312 84t363 -115l-63 -104q-145 96 -320 96q-120 0 -188 -48t-68 -124v-22q0 -127 277 -179q207 -39 297 -111t90 -204v-31q0 -131 -115 -215t-291 -84q-246 0 -424 129l68 111q170 -115 348 -115
q129 1 202 53t72 125v21z" />
    <glyph glyph-name="Korea1.85" unicode="t" horiz-adv-x="794" 
d="M250 254v678h-189v119h189v284h139v-284h305v-119h-305v-672q0 -111 36 -157t119 -46t156 21l21 -115q-70 -27 -203 -27t-201 72q-67 72 -67 246z" />
    <glyph glyph-name="Korea1.86" unicode="u" horiz-adv-x="1183" 
d="M541 -70q-185 0 -285 102t-100 279v740h139v-705q-1 -135 57 -212t200 -77t234 87t93 190v717h139v-1104h-137v153q-43 -72 -131 -121t-209 -49z" />
    <glyph glyph-name="Korea1.87" unicode="v" horiz-adv-x="1026" 
d="M594 -53h-156l-403 1104h149l334 -961l328 961h145z" />
    <glyph glyph-name="Korea1.88" unicode="w" horiz-adv-x="1544" 
d="M504 -53h-162l-301 1104h141l244 -965l270 965h158l276 -965l238 965h135l-295 -1104h-161l-275 948z" />
    <glyph glyph-name="Korea1.89" unicode="x" horiz-adv-x="1042" 
d="M979 1051l-371 -533l389 -571h-161l-314 485l-323 -485h-154l393 571l-370 533h155l303 -451l301 451h152z" />
    <glyph glyph-name="Korea1.90" unicode="y" horiz-adv-x="1034" 
d="M35 1051h143l342 -949l336 949h143l-573 -1561l-119 43l142 395z" />
    <glyph glyph-name="Korea1.91" unicode="z" horiz-adv-x="999" 
d="M899 1051v-95l-674 -895h703v-114h-867v106l666 883h-625v115h797z" />
    <glyph glyph-name="Korea1.92" unicode="{" horiz-adv-x="858" 
d="M295 872v412q0 152 70 218t225 67h190v-125h-172q-94 0 -135 -33t-41 -131v-393q0 -215 -160 -252q160 -35 160 -252v-455q0 -96 40 -124t136 -27h172v-125h-190q-158 0 -226 62t-69 210v471q0 88 -52 130t-165 44v133q113 2 165 42t52 128z" />
    <glyph glyph-name="Korea1.93" unicode="|" horiz-adv-x="575" 
d="M350 1567v-1915h-125v1915h125z" />
    <glyph glyph-name="Korea1.94" unicode="}" horiz-adv-x="858" 
d="M563 395v-471q0 -147 -68 -210q-69 -62 -227 -62h-190v125h172q96 -1 136 27t40 124v455q0 217 160 252q-160 37 -160 252v393q0 98 -41 131t-135 33h-172v125h190q156 0 226 -67t69 -218v-412q0 -88 52 -128t165 -42v-133q-113 -2 -165 -44t-52 -130z" />
    <glyph glyph-name="Korea1.95" unicode="~" horiz-adv-x="1228" 
d="M807 496q-66 0 -122 32t-90 68q-93 102 -175 100q-137 0 -164 -207h-127q20 145 93 237t198 93q68 -1 125 -33t91 -68q94 -100 173 -100q137 0 164 207h127q-39 -329 -293 -329z" />
    <glyph glyph-name="Korea1.208" unicode="&#xa1;" horiz-adv-x="573" 
d="M385 1462v-200h-197v200h197zM227 1049h119l25 -1160h-168z" />
    <glyph glyph-name="Korea1.143" unicode="&#xa2;" horiz-adv-x="1019" 
d="M532 -53v196q-200 12 -310 133t-109 347v135q0 219 113 339q114 120 306 130v196h113v-198q174 -14 295 -105l-63 -106q-109 76 -232 88v-832q139 14 260 107l66 -111q-137 -106 -326 -121v-198h-113zM250 623q0 -162 76 -251t206 -102v834q-134 -12 -208 -99t-74 -243
v-139z" />
    <glyph glyph-name="Korea1.144" unicode="&#xa3;" horiz-adv-x="1126" 
d="M127 637v115h176v204q0 238 121 353t299 115t291 -66l-53 -115q-113 47 -236 47t-201 -77t-78 -271v-190h414v-115h-414v-193q0 -147 -28 -228t-103 -138v-4h744v-127h-930v112q96 55 135 143t39 238v197h-176z" />
    <glyph glyph-name="Korea1.214" unicode="&#xa4;" horiz-adv-x="1863" 
d="M1401 643q0 199 -141 340t-341.5 141t-340.5 -140t-140 -341t140 -341t340 -140t341.5 141t141.5 340zM1511 636q0 -190 -118 -347l247 -221l-73 -84l-248 223q-176 -158 -398 -158t-386 144l-240 -209l-74 84l236 206q-131 164 -131 360t108 353l-215 195l78 84
l213 -193q170 164 409 164t420 -178l228 207l75 -84l-231 -205q100 -151 100 -341z" />
    <glyph glyph-name="Korea1.145" unicode="&#xa5;" horiz-adv-x="1232" 
d="M549 -53v315h-354v115h354v147h-354v115h323l-446 770h159l392 -702h6l383 702h145l-436 -770h326v-115h-355v-147h355v-115h-355v-315h-143z" />
    <glyph glyph-name="Korea1.155" unicode="&#xa7;" horiz-adv-x="1052" 
d="M746 1q0 91 -46 135t-218 97t-204 70t-68 37t-49 36t-38 46t-37 84.5t-12 93.5q0 203 217 270q-117 82 -117 240t101 246t273 88t308 -68v-112q-130 59 -272 59t-210 -49t-68 -136t36.5 -131t132.5 -77q31 -10 163 -51t164 -61t66.5 -41.5t49.5 -42.5q46 -73 54 -112
t7 -81q0 -211 -221 -279q127 -80 127 -242t-106 -250t-296 -88t-336 82v115q69 -29 95 -40t92 -24t137 -14q135 1 205 55t70 145zM207 607q0 -83 46 -133t150 -83q221 -68 232 -72q205 41 205 211q0 88 -52 136t-212 96t-173 53q-94 -17 -145 -71t-51 -137z" />
    <glyph glyph-name="Korea1.107" unicode="&#xa8;" horiz-adv-x="1228" 
d="M707 1219v147h135v-147h-135zM387 1219v147h135v-147h-135z" />
    <glyph glyph-name="Korea1.98" unicode="&#xa9;" horiz-adv-x="1720" 
d="M1608 686q0 -312 -216 -533t-532 -221t-531.5 220t-215.5 532t215.5 532t531.5 220t532 -219t216 -531zM859 23q282 0 465 188t183 473.5t-183 473.5t-465 188t-464 -188t-182 -474t182 -473.5t464 -187.5zM880 1116q165 0 283 -90l-65 -102q-96 70 -206 70t-171 -65
t-62 -188v-106q-1 -131 61 -197t178 -66t222 79l64 -105q-117 -96 -295 -96t-274 101q-95 101 -95 282v104q0 178 97 279q98 100 263 100z" />
    <glyph glyph-name="Korea1.668" unicode="&#xaa;" horiz-adv-x="911" 
d="M384 567q-118 0 -198 69t-80 187v37q0 117 81 186t241 68h238v68q0 188 -199 188q-131 0 -258 -90l-68 102q160 111 320 111t250 -76t90 -209v-626h-133v108q-26 -45 -96 -84t-188 -39zM242 829q0 -143 189 -143q89 0 163 55q72 44 72 138v120h-236q-188 0 -188 -147v-23
z" />
    <glyph glyph-name="Korea1.176" unicode="&#xab;" horiz-adv-x="1863" 
d="M768 621l903 -590l-61 -101l-987 643v93l970 661l72 -96zM338 618l903 -593l-65 -103l-983 651v93l968 671l72 -100z" />
    <glyph glyph-name="Korea1.194" unicode="&#xac;" horiz-adv-x="1863" 
d="M1808 324v-641h-120v524h-1633v117h1753z" />
    <glyph glyph-name="Korea1.109" unicode="&#xad;" horiz-adv-x="843" 
d="M844 698v-118h-844v118h844z" />
    <glyph glyph-name="Korea1.138" unicode="&#xb0;" horiz-adv-x="618" 
d="M547 1246.5q0 -100.5 -67 -168.5t-171 -68t-170.5 68t-66.5 168t66 170q67 69 171 69t171 -69t67 -169.5zM444 1247q0 59 -36 101t-98 41t-99 -41t-37 -100t37 -101t98 -41t99 41q36 41 36 100z" />
    <glyph glyph-name="Korea1.130" unicode="&#xb1;" horiz-adv-x="1228" 
d="M113 223h1003v-123h-1003v123zM547 324v438h-434v127h434v438h135v-438h434v-127h-434v-438h-135z" />
    <glyph glyph-name="Korea1.843" unicode="&#xb2;" horiz-adv-x="819" 
d="M563 1290v13q0 53 -45 86t-117 32q-131 0 -206 -137l-97 66q94 188 299 188q139 0 217 -64t78 -171v-15q0 -121 -147 -278l-293 -316h473v-112h-631v108l350 383q119 131 119 217z" />
    <glyph glyph-name="Korea1.844" unicode="&#xb3;" horiz-adv-x="819" 
d="M395 1538q129 0 206 -63t77 -170v-15q0 -160 -143 -215q90 -15 139 -75t49 -142v-18q0 -115 -83 -195t-247 -80t-299 107l62 100q127 -90 232 -90t155 43q49 43 49 113v14q0 164 -199 164h-110v112h106q82 0 121 46t39 114v12q0 58 -43 92t-111 33q-106 0 -180 -94
l-92 68q94 139 272 139z" />
    <glyph glyph-name="Korea1.199" unicode="&#xb4;" horiz-adv-x="1228" 
d="M553 1163h-131l215 289h170z" />
    <glyph glyph-name="Korea1.244" unicode="&#xb6;" horiz-adv-x="1185" 
d="M596 -250v971h-113q-169 -1 -287 95t-118 270t107 277q108 103 350 103h475v-1716h-103v1626h-207v-1626h-104z" />
    <glyph glyph-name="Korea1.104" unicode="&#xb7;" horiz-adv-x="1863" 
d="M827 518v205h207v-205h-207z" />
    <glyph glyph-name="Korea1.206" unicode="&#xb8;" horiz-adv-x="1228" 
d="M487 -158v174h99v-94q201 -10 200 -137q0 -90 -78 -133t-266 -55v90q126 11 176 27t50 58t-41 56t-140 14z" />
    <glyph glyph-name="Korea1.842" unicode="&#xb9;" horiz-adv-x="819" 
d="M553 582h-129v786l-221 -127l-60 102l299 177h111v-938z" />
    <glyph glyph-name="Korea1.675" unicode="&#xba;" horiz-adv-x="956" 
d="M866 1085v-110q0 -193 -102 -301t-284 -108t-286 109q-103 108 -104 300v110q0 195 104 301t286 106t284 -107.5t102 -299.5zM480 688q118 0 185 75t66 222v90q0 145 -66 221q-67 76 -185 76t-186 -76t-67 -221v-90q-1 -147 67 -222t186 -75z" />
    <glyph glyph-name="Korea1.177" unicode="&#xbb;" horiz-adv-x="1863" 
d="M1096 621l-897 610l71 96l971 -661v-93l-987 -643l-61 101zM1526 618q-182 128 -895 619l71 100l969 -671v-93l-983 -651l-65 103z" />
    <glyph glyph-name="Korea1.751" unicode="&#xbc;" horiz-adv-x="1810" 
d="M1499 430h125v-285h135v-112h-135v-203h-125v203h-457v98l424 637h144l-420 -623h309v285zM362 -135l1072 1587h137l-1071 -1587h-138zM553 485h-129v787l-221 -127l-60 102l299 176h111v-938z" />
    <glyph glyph-name="Korea1.748" unicode="&#xbd;" horiz-adv-x="1914" 
d="M362 -135l1072 1587h137l-1071 -1587h-138zM553 485h-129v787l-221 -127l-60 102l299 176h111v-938zM1659 539v12q0 53 -45 86t-117 33q-131 0 -207 -138l-96 66q94 188 299 188q139 0 217 -64t78 -171v-14q0 -121 -148 -279l-292 -315h473v-113h-631v109l350 383
q119 131 119 217z" />
    <glyph glyph-name="Korea1.752" unicode="&#xbe;" horiz-adv-x="1841" 
d="M393 -135l1071 1587h138l-1072 -1587h-137zM395 1442q129 0 206 -64t77 -170v-14q0 -160 -143 -215q90 -15 139 -75t49 -142v-19q0 -115 -83 -195t-247 -80t-299 107l62 101q127 -90 232 -90t155 43q49 43 49 112v15q0 164 -199 164h-110v112h106q82 0 121 46t39 114v12
q0 59 -43 92t-111 33q-106 0 -180 -94l-92 68q94 139 272 139zM1530 430h125v-285h135v-112h-135v-203h-125v203h-457v98l424 637h143l-419 -623h309v285z" />
    <glyph glyph-name="Korea1.209" unicode="&#xbf;" horiz-adv-x="1064" 
d="M662 1446v-201h-197v201h197zM494 1047h139v-97q0 -98 -43 -171t-196 -215q-32 -30 -42 -41t-34 -37t-32 -43l-22 -43q-22 -48 -22 -107v-33q0 -112 76 -176t202 -64q205 0 340 156l92 -94q-66 -80 -176 -136t-252 -57q-202 -1 -316 99t-114 270v35q0 138 86 241
q46 55 146 146t135 147q33 56 33 129v91z" />
    <glyph glyph-name="Korea1.666" unicode="&#xc6;" horiz-adv-x="2004" 
d="M1860 1423v-127h-699v-528h656v-127h-656v-567h713v-127h-856v459h-537l-282 -459h-166l917 1476h910zM1018 530v766q-31 -71 -111 -202l-348 -564h459z" />
    <glyph glyph-name="Korea1.667" unicode="&#xd0;" horiz-adv-x="1392" 
d="M20 651v121h175v651h460q283 0 441 -165t157 -467v-211q1 -303 -157 -468t-441 -165h-460v704h-175zM338 1296v-524h354v-121h-354v-577h319q207 0 330 130t123 386v190q0 256 -123 386t-330 130h-319z" />
    <glyph glyph-name="Korea1.131" unicode="&#xd7;" horiz-adv-x="1228" 
d="M152 262l374 395l-374 400l88 88l374 -402l373 394l92 -93l-374 -391l374 -395l-88 -88l-373 395l-374 -395z" />
    <glyph glyph-name="Korea1.673" unicode="&#xd8;" horiz-adv-x="1417" 
d="M133 584v202q0 304 152 482t422 178t423 -176l144 172l88 -78l-162 -197q84 -158 84 -381v-202q0 -305 -152 -483q-153 -177 -413 -177t-414 154l-127 -154l-88 78l141 172q-98 168 -98 410zM716 1317q-208 0 -323 -141t-114 -402v-178q0 -176 53 -299l706 858
q-114 162 -322 162zM1139 774q0 154 -41 266l-701 -852q111 -136 312 -136t315 142t115 402v178z" />
    <glyph glyph-name="Korea1.676" unicode="&#xde;" horiz-adv-x="1224" 
d="M170 -53v1476h143v-278h357q227 0 350 -117t123 -305v-43q0 -186 -127 -307t-346 -121h-357v-305h-143zM657 1016h-344v-635h322q184 0 273 80t89 223v37q0 135 -86 215t-254 80z" />
    <glyph glyph-name="Korea1.768" unicode="&#xdf;" horiz-adv-x="1155" 
d="M662 758v-13q0 -35 7 -55t41 -50t139 -81t167 -113t63 -178v-30q-1 -140 -83 -224t-258 -84t-320 119l69 111q119 -104 240 -104t167 52t46 134v20q0 62 -43 104t-157 95t-166 115t-52 165v19q0 72 47 135t103 102t102 95t47 118v23q0 147 -250 147q-145 0 -212 -72
t-66 -227v-1134h-139v1145q0 416 417 415q197 -1 290 -75t93 -189v-24q0 -84 -46 -157t-100 -114q-146 -111 -146 -190z" />
    <glyph glyph-name="Korea1.757" unicode="&#xe6;" horiz-adv-x="1804" 
d="M1272 -70q-285 0 -400 215q-52 -99 -166 -157t-258 -58t-242 85t-97 231v35q0 137 101 220t288 83h311v112q0 121 -67 186t-195 64q-164 0 -326 -112l-67 106q186 131 395 131q256 0 352 -170q119 170 342 170t337 -133t114 -369v-108h-746v-25q0 -182 86 -282t254 -100
t320 108l61 -107q-178 -125 -397 -125zM809 467h-309q-128 0 -190 -52t-62 -141v-22q0 -100 69 -150t177 -50t212 64t103 175v176zM948 578h606v12q0 172 -77 265q-79 93 -223 93t-225 -96t-81 -262v-12z" />
    <glyph glyph-name="Korea1.759" unicode="&#xf0;" horiz-adv-x="1134" 
d="M1051 569v-137q0 -238 -124 -370t-345 -132t-345 132t-124 370v127q0 240 118 371q119 131 334 131q168 0 252 -96q-80 170 -237 290l-267 -110l-39 98l205 84q-2 2 -162 98l58 97q158 -88 233 -140l226 95l38 -99l-167 -69q346 -293 346 -740zM909 575q0 167 -91.5 265
t-243.5 98t-236 -97t-84 -290v-111q0 -190 86 -288t242 -98t242 98t85 288v135z" />
    <glyph glyph-name="Korea1.132" unicode="&#xf7;" horiz-adv-x="1228" 
d="M111 719h1007v-131h-1007v131zM528 977v168h172v-168h-172zM528 162v168h172v-168h-172z" />
    <glyph glyph-name="Korea1.766" unicode="&#xf8;" horiz-adv-x="1163" 
d="M574 1071q213 0 331 -113l99 113l79 -70l-108 -124q76 -123 76 -308v-137q0 -238 -124 -370t-337 -132t-338 115l-98 -115l-80 70l112 129q-74 121 -73 303v137q0 240 124 371t337 131zM909 561q0 115 -35 201l-532 -615q86 -93 241 -93t241 98t85 288v121zM254 440
q0 -117 31 -196l532 612q-87 92 -239 92t-238 -98t-86 -289v-121z" />
    <glyph glyph-name="Korea1.769" unicode="&#xfe;" horiz-adv-x="1185" 
d="M303 78v-570h-139v1987h139v-600q49 82 137 129t193 47q199 0 319 -125t119 -348v-195q-1 -221 -123 -347t-326 -126t-317 148h-2zM932 424v154q0 174 -82 270t-215 96t-233 -85t-99 -222v-324q-1 -100 91 -180q92 -79 232 -79t223 98t83 272z" />
    <glyph glyph-name="Korea1.758" unicode="&#x111;" horiz-adv-x="1210" 
d="M565 1206v115h318v174h139v-174h127v-115h-127v-1259h-137v145h-2q-43 -78 -134 -120t-194 -42q-195 0 -317 126t-123 347v195q-1 221 121 347t330 126t317 -156v291h-318zM254 578v-154q0 -174 84 -272t224 -98t231 74q90 75 90 214v332q0 102 -93 188q-94 86 -232 86
t-221 -98t-83 -272z" />
    <glyph glyph-name="Korea1.669" unicode="&#x126;" horiz-adv-x="1415" 
d="M1087 -53v661h-759v-661h-144v1057h-143v120h143v299h144v-299h759v299h144v-299h143v-120h-143v-1057h-144zM328 1004v-252h759v252h-759z" />
    <glyph glyph-name="Korea1.760" unicode="&#x127;" horiz-adv-x="1228" 
d="M61 1206v115h140v174h139v-174h305v-115h-305v-309q45 72 130 123t206 51q186 0 292 -103t105 -278v-743h-139v708q0 289 -279 289q-133 0 -224 -89t-91 -191v-717h-139v1259h-140z" />
    <glyph glyph-name="Korea1.761" unicode="&#x131;" horiz-adv-x="466" 
d="M164 -53v1104h139v-1104h-139z" />
    <glyph glyph-name="Korea1.670" unicode="&#x132;" horiz-adv-x="1411" 
d="M170 -53v1476h143v-1476h-143zM1104 352v1071h143v-1085q0 -414 -377 -414q-217 0 -346 113l70 117q118 -94 258 -94t196 69t56 223z" />
    <glyph glyph-name="Korea1.762" unicode="&#x133;" horiz-adv-x="970" 
d="M170 -53v1104h139v-1104h-139zM164 1262v155h151v-155h-151zM655 1262v155h152v-155h-152zM801 1051v-1239q0 -174 -71 -248t-201 -74t-199 27l20 114q74 -20 157 -20t119 47t36 160v1233h139z" />
    <glyph glyph-name="Korea1.763" unicode="&#x138;" horiz-adv-x="1105" 
d="M303 -53h-139v1104h139v-555l539 555h180l-449 -455l488 -649h-170l-412 555l-176 -178v-377z" />
    <glyph glyph-name="Korea1.671" unicode="&#x13f;" horiz-adv-x="1093" 
d="M170 1423h143v-1349h740v-127h-883v1476zM743 637v205h207v-205h-207z" />
    <glyph glyph-name="Korea1.764" unicode="&#x140;" horiz-adv-x="835" 
d="M164 -53v1548h139v-1548h-139zM528 678v205h207v-205h-207z" />
    <glyph glyph-name="Korea1.672" unicode="&#x141;" horiz-adv-x="1153" 
d="M229 1423h144v-716l418 237l49 -96l-467 -266v-508h739v-127h-883v553l-159 -90l-50 96l209 119v798z" />
    <glyph glyph-name="Korea1.765" unicode="&#x142;" horiz-adv-x="618" 
d="M240 1495h139v-639l170 96l49 -90l-219 -123v-792h-139v712l-170 -94l-50 90l220 123v717z" />
    <glyph glyph-name="Korea1.772" unicode="&#x149;" horiz-adv-x="1191" 
d="M63 1065h-118l41 365h159zM639 1071q185 0 291 -103t106 -278v-743h-139v708q0 289 -279 289q-133 0 -224 -89t-91 -191v-717h-139v1104h137v-154q45 72 131 123t207 51z" />
    <glyph glyph-name="Korea1.678" unicode="&#x14a;" horiz-adv-x="1394" 
d="M170 -53v1476h170l678 -1091q41 -68 69 -137v1228h138v-1611q0 -174 -70 -248t-200 -74t-199 27l20 114q74 -20 157 -20t119 47t35 160v139l-712 1149q-33 53 -68 133v-1292h-137z" />
    <glyph glyph-name="Korea1.771" unicode="&#x14b;" horiz-adv-x="1191" 
d="M639 1071q185 0 291 -103t106 -278v-878q0 -174 -70 -248t-200 -74t-201 27l21 114q74 -20 156 -20t119 47q36 47 36 160v837q0 289 -279 289q-133 0 -224 -89t-91 -191v-717h-139v1104h137v-154q45 72 131 123t207 51z" />
    <glyph glyph-name="Korea1.674" unicode="&#x152;" horiz-adv-x="1976" 
d="M1831 1423v-127h-698v-528h655v-127h-655v-567h712v-127l-1075 -2q-317 0 -477 169t-160 478v186q0 309 161 477t476 168h1061zM770 74h219v1222h-219q-492 0 -491 -530v-162q-1 -530 491 -530z" />
    <glyph glyph-name="Korea1.767" unicode="&#x153;" horiz-adv-x="1888" 
d="M1368 -70q-274 0 -389 213q-115 -213 -389 -213q-217 0 -341 132t-124 370v137q0 238 124 370t341 132q274 0 389 -213q111 213 371 213q208 0 322 -134t114 -368v-114h-737v-19q-1 -182 85 -282t250 -100t316 108l61 -107q-178 -125 -393 -125zM266 440
q0 -193 84 -290.5t239 -97.5t237 98t83 290v121q0 193 -83 290q-84 97 -238 97t-238 -97t-84 -290v-121zM1049 571h598v19q0 172 -77.5 265t-219.5 93t-222 -96t-79 -262v-19z" />
    <glyph glyph-name="Korea1.677" unicode="&#x166;" horiz-adv-x="1169" 
d="M41 1423h1087v-127h-473v-540h312v-121h-312v-688h-143v688h-311v121h311v540h-471v127z" />
    <glyph glyph-name="Korea1.770" unicode="&#x167;" horiz-adv-x="794" 
d="M61 1051h189v284h139v-284h305v-119h-305v-217h305v-111h-305v-344q0 -111 36 -157t119 -46t156 21l21 -115q-70 -27 -203 -27t-201 72t-67 246v350h-189v111h189v217h-189v119z" />
    <glyph glyph-name="Korea1.8275" unicode="&#x2bc;" horiz-adv-x="962" 
 />
    <glyph glyph-name="Korea1.201" unicode="&#x2c7;" horiz-adv-x="1228" 
d="M883 1438l-209 -285h-121l-207 285h113l157 -181l152 181h115z" />
    <glyph glyph-name="Korea1.210" unicode="&#x2d0;" horiz-adv-x="1863" 
d="M930 344l174 -192h-344zM760 1116h344l-174 -194z" />
    <glyph glyph-name="Korea1.202" unicode="&#x2d8;" horiz-adv-x="1228" 
d="M614 1262q139 0 160 147h107q-4 -113 -77.5 -183t-189.5 -70t-188 70.5t-78 182.5h107q20 -147 159 -147z" />
    <glyph glyph-name="Korea1.205" unicode="&#x2d9;" horiz-adv-x="1228" 
d="M543 1219v149h141v-149h-141z" />
    <glyph glyph-name="Korea1.204" unicode="&#x2da;" horiz-adv-x="1863" 
d="M932 1139q-82 0 -136 54t-54 130t54 130t136 54t136 -54t54 -129t-54 -130t-136 -55zM829 1323q0 -47 28 -77t74 -30t74 30q27 30 27 77t-27 76q-28 29 -74 29t-74 -29t-28 -76z" />
    <glyph glyph-name="Korea1.207" unicode="&#x2db;" horiz-adv-x="1228" 
d="M666 -401q-209 0 -209 151q-1 52 31 102t63 74t82 56h115q-57 -45 -86 -71q-82 -73 -80 -142q0 -47 26 -62q27 -14 80 -14t82 12v-88q-55 -18 -104 -18z" />
    <glyph glyph-name="Korea1.200" unicode="&#x2dc;" horiz-adv-x="1228" 
d="M731 1313q68 0 84 82h94q-9 -93 -61 -143t-110 -50t-134 40t-106 40q-66 0 -82 -82h-97q13 94 63 143t108 49t134 -40t107 -39z" />
    <glyph glyph-name="Korea1.203" unicode="&#x2dd;" horiz-adv-x="1228" 
d="M340 1163l109 289h147l-139 -289h-117zM635 1163l108 289h148l-139 -289h-117z" />
    <glyph glyph-name="Korea1.471" unicode="&#x391;" horiz-adv-x="1347" 
d="M756 1423l547 -1476h-154l-164 459h-625l-167 -459h-148l549 1476h162zM553 930l-147 -400h534l-143 400q-61 166 -123 366q-49 -171 -121 -366z" />
    <glyph glyph-name="Korea1.472" unicode="&#x392;" horiz-adv-x="1259" 
d="M170 -53v1476h471q469 0 469 -360v-43q0 -106 -56 -185t-182 -110q142 -20 224 -105t82 -233v-51q0 -184 -119 -286t-354 -103h-535zM311 657v-583h381q340 0 340 264v45q0 141 -86 208t-299 66h-336zM631 1298h-320v-520h334q162 0 242 56t80 190v37q0 129 -80 183
t-256 54z" />
    <glyph glyph-name="Korea1.473" unicode="&#x393;" horiz-adv-x="1052" 
d="M313 -53h-143v1476h842v-125h-699v-1351z" />
    <glyph glyph-name="Korea1.474" unicode="&#x394;" horiz-adv-x="1333" 
d="M37 -53l543 1476h155l539 -1476h-1237zM659 1276h-2l-428 -1196h850z" />
    <glyph glyph-name="Korea1.475" unicode="&#x395;" horiz-adv-x="1204" 
d="M170 1423h889v-127h-746v-528h703v-127h-703v-567h760v-127h-903v1476z" />
    <glyph glyph-name="Korea1.476" unicode="&#x396;" horiz-adv-x="1222" 
d="M1110 1423v-96l-881 -1257h920v-123h-1092v112l871 1241h-822v123h1004z" />
    <glyph glyph-name="Korea1.477" unicode="&#x397;" horiz-adv-x="1386" 
d="M1018 -53v698h-760v-698h-143v1476h143v-635h760v635h143v-1476h-143z" />
    <glyph glyph-name="Korea1.478" unicode="&#x398;" horiz-adv-x="1417" 
d="M1042 760v-144h-667v144h667zM133 786q0 304 152 482t423 178t424 -177t152 -483v-202q0 -305 -152 -483q-153 -177 -423 -177t-423 177t-153 483v202zM1139 774q0 260 -115 402q-116 142 -316 142t-315 -141.5t-114 -402.5v-178q1 -260 115 -402t315 -142t315 142
t115 402v178z" />
    <glyph glyph-name="Korea1.479" unicode="&#x399;" horiz-adv-x="483" 
d="M170 -53v1476h143v-1476h-143z" />
    <glyph glyph-name="Korea1.480" unicode="&#x39a;" horiz-adv-x="1318" 
d="M313 -53h-143v1476h143v-745l713 745h193l-615 -630l653 -846h-184l-571 741l-189 -194v-547z" />
    <glyph glyph-name="Korea1.481" unicode="&#x39b;" horiz-adv-x="1308" 
d="M737 1423l527 -1476h-158l-455 1329h-2l-454 -1329h-150l528 1476h164z" />
    <glyph glyph-name="Korea1.482" unicode="&#x39c;" horiz-adv-x="1687" 
d="M311 -53h-141v1476h176l500 -1081l502 1081h170v-1476h-142v1267q-16 -82 -69 -186l-396 -835h-135l-391 835q-53 106 -74 186v-1267z" />
    <glyph glyph-name="Korea1.483" unicode="&#x39d;" horiz-adv-x="1394" 
d="M170 -53v1476h170l678 -1155q25 -41 69 -137v1292h138v-1476h-170l-680 1159q-41 72 -68 133v-1292h-137z" />
    <glyph glyph-name="Korea1.484" unicode="&#x39e;" horiz-adv-x="1153" 
d="M170 74h903v-127h-903v127zM219 641v127h793v-127h-793zM1059 1296h-889v127h889v-127z" />
    <glyph glyph-name="Korea1.485" unicode="&#x39f;" horiz-adv-x="1417" 
d="M133 786q0 304 152 482t423 178t424 -177t152 -483v-202q0 -305 -152 -483q-153 -177 -423 -177t-423 177t-153 483v202zM1139 774q0 260 -115 402q-116 142 -316 142t-315 -141.5t-114 -402.5v-178q1 -260 115 -402t315 -142t315 142t115 402v178z" />
    <glyph glyph-name="Korea1.486" unicode="&#x3a0;" horiz-adv-x="1361" 
d="M1184 1423v-1476h-144v1351h-727v-1351h-143v1476h1014z" />
    <glyph glyph-name="Korea1.487" unicode="&#x3a1;" horiz-adv-x="1224" 
d="M170 -53v1476h500q227 -1 350 -117t123 -305v-43q0 -186 -127 -307t-346 -121h-357v-583h-143zM657 1294h-344v-635h322q184 0 273 80t89 224v36q0 135 -86 215t-254 80z" />
    <glyph glyph-name="Korea1.488" unicode="&#x3a3;" horiz-adv-x="1185" 
d="M170 1423h889v-127h-705l424 -616l-432 -606h727v-127h-903v102l444 629l-444 649v96z" />
    <glyph glyph-name="Korea1.489" unicode="&#x3a4;" horiz-adv-x="1169" 
d="M41 1423h1087v-127h-473v-1349h-143v1349h-471v127z" />
    <glyph glyph-name="Korea1.490" unicode="&#x3a5;" horiz-adv-x="1232" 
d="M692 -53h-143v604l-508 872h162l420 -741l409 741h160l-500 -872v-604z" />
    <glyph glyph-name="Korea1.491" unicode="&#x3a6;" horiz-adv-x="1519" 
d="M123 662v108q0 228 147 364t420 152v184h137v-184q270 -14 420 -151t150 -365v-108q0 -226 -150 -364t-420 -153v-198h-137v198q-272 14 -420 151q-147 137 -147 366zM1255 674v84q0 186 -113 286q-114 100 -315 115v-887q203 14 316 115q112 101 112 287zM264 758v-84
q0 -186 112 -286t314 -116v887q-202 -15 -314 -115t-112 -286z" />
    <glyph glyph-name="Korea1.492" unicode="&#x3a7;" horiz-adv-x="1312" 
d="M1212 1423l-464 -710l495 -766h-176l-412 669l-422 -669h-163l497 768l-473 708h168l402 -618l387 618h161z" />
    <glyph glyph-name="Korea1.493" unicode="&#x3a8;" horiz-adv-x="1447" 
d="M649 -53v393q-233 20 -375 172q-141 152 -141 424v446h141v-399q0 -461 375 -504v903h144v-905q381 39 381 506v399h141v-446q1 -274 -143 -426t-379 -170v-393h-144z" />
    <glyph glyph-name="Korea1.494" unicode="&#x3a9;" horiz-adv-x="1513" 
d="M51 -53v119h365q-225 145 -226 530v203q0 305 148 476t420 171t420 -171t147 -476v-203q0 -387 -225 -530h362v-119h-538v131q106 55 181 196t75 334v178q0 260 -111 396t-311 136t-312 -136q-112 -135 -110 -396v-178q0 -203 66 -341t188 -189v-131h-539z" />
    <glyph glyph-name="Korea1.495" unicode="&#x3b1;" horiz-adv-x="1185" 
d="M885 -53v145h-2q-43 -78 -134 -120t-194 -42q-195 0 -317 126t-123 347v195q0 221 122 347q123 126 329 126t317 -156v136h139v-1104h-137zM254 578v-154q0 -174 84 -272t224 -98t231 74q90 75 90 214v332q0 102 -93 188q-94 86 -232 86t-221 -98t-83 -272z" />
    <glyph glyph-name="Korea1.496" unicode="&#x3b2;" horiz-adv-x="1173" 
d="M965 1110q0 -274 -226 -350q141 -16 237 -106t95 -248v-72q0 -184 -118 -294t-298 -110q-127 0 -218 41t-134 109v-572h-139v1590q0 205 116 307t302 102t284 -101t99 -253v-43zM303 315q1 -100 93 -180t244 -80t222 88t70 195v61q0 303 -400 291v119q166 0 230 76
q63 76 63 227v35q0 233 -250 233q-127 0 -199 -73t-73 -220v-772z" />
    <glyph glyph-name="Korea1.497" unicode="&#x3b3;" horiz-adv-x="1034" 
d="M588 -492h-139v420l-414 1123h143l342 -949l336 949h143l-411 -1119v-424z" />
    <glyph glyph-name="Korea1.498" unicode="&#x3b4;" horiz-adv-x="1163" 
d="M293 1292q1 82 85 149t246 67t300 -74l-54 -111q-117 61 -227 61q-211 0 -211 -106v-10q0 -54 40 -88t63 -48t81 -51t134 -85t142 -106t112 -156t47 -226v-76q0 -238 -124 -370t-345 -132t-345 132t-124 370v66q-1 242 131 364t329 117q-281 123 -280 281v32zM909 514
q0 164 -92 262t-229 98q-334 0 -334 -385v-49q0 -190 86 -288t242 -98t242 98t85 288v74z" />
    <glyph glyph-name="Korea1.499" unicode="&#x3b5;" horiz-adv-x="958" 
d="M547 950q-268 0 -268 -147v-19q-1 -80 73 -137t187 -57h137v-123h-137q-285 0 -285 -197v-26q0 -188 278 -189q195 0 342 99l64 -107q-147 -117 -406 -117q-418 0 -417 316v28q0 109 72 175q73 66 192 86q-111 25 -174 89t-64 154v29q0 129 110 197t290 68t325 -73
l-47 -108q-121 59 -272 59z" />
    <glyph glyph-name="Korea1.500" unicode="&#x3b6;" horiz-adv-x="880" 
d="M760 -122q0 64 -197 108q-225 64 -343 166t-118 301v47q0 244 143 473q142 229 378 399h-398v123h600l13 -102q-270 -175 -434 -405t-162 -492v-39q0 -152 88 -226t277 -128t237 -99q48 -46 47 -120q0 -74 -35 -121t-125 -113l-76 88q59 44 82 74t23 66z" />
    <glyph glyph-name="Korea1.501" unicode="&#x3b7;" horiz-adv-x="1191" 
d="M639 1071q185 0 291 -103t106 -278v-1182h-139v1147q0 289 -279 289q-133 0 -224 -89t-91 -191v-717h-139v1104h137v-154q45 72 131 123t207 51z" />
    <glyph glyph-name="Korea1.502" unicode="&#x3b8;" horiz-adv-x="1167" 
d="M583 1507q222 0 337 -175t114 -484v-262q0 -309 -114 -485q-115 -175 -336 -175t-336 175t-115 485v262q0 309 114 484t336 175zM584 51q309 0 309 547v70h-619v-70q1 -547 310 -547zM893 786v50q0 547 -309 546q-309 0 -310 -546v-50h619z" />
    <glyph glyph-name="Korea1.503" unicode="&#x3b9;" horiz-adv-x="522" 
d="M303 164q0 -115 80 -115q39 0 76 12l22 -110q-53 -20 -127 -21q-190 0 -190 222v899h139v-887z" />
    <glyph glyph-name="Korea1.504" unicode="&#x3ba;" horiz-adv-x="1105" 
d="M303 -53h-139v1104h139v-555l539 555h180l-449 -455l488 -649h-170l-412 555l-176 -178v-377z" />
    <glyph glyph-name="Korea1.505" unicode="&#x3bb;" horiz-adv-x="1034" 
d="M302 1508q65 0 106 -31t65 -99l526 -1431h-147l-338 944l-332 -944h-143l405 1122l-92 248q-25 68 -69 67q-29 0 -66 -16l-39 113q59 27 124 27z" />
    <glyph glyph-name="Korea1.506" unicode="&#x3bc;" horiz-adv-x="1189" 
d="M887 1051h139v-1104h-137v127q-37 -56 -115 -100t-170 -44q-203 0 -299 148h-2v-570h-139v1543h139v-707q0 -117 82 -201.5t212 -84.5t210 94t80 258v641z" />
    <glyph glyph-name="Korea1.507" unicode="&#x3bd;" horiz-adv-x="1026" 
d="M594 -53h-156l-403 1104h149l334 -961l328 961h145z" />
    <glyph glyph-name="Korea1.508" unicode="&#x3be;" horiz-adv-x="944" 
d="M240 457v-23q0 -156 108 -229q56 -37 110 -57t181 -54t195 -74t68 -126t-36 -134t-125 -112l-75 88q212 155 4 222q-36 11 -122 32q-331 80 -413 261q-35 77 -35 179v33q0 160 94 247t238 103q-117 19 -198 105t-80 227v39q0 143 103 233t301 90t329 -96l-62 -102
q-111 74 -270 73q-262 0 -262 -204v-31q0 -117 93 -198t241 -81h104v-120h-110q-173 0 -277 -74t-104 -217z" />
    <glyph glyph-name="Korea1.509" unicode="&#x3bf;" horiz-adv-x="1163" 
d="M582 1071q221 0 345 -132t124 -370v-137q0 -238 -124 -370t-345 -132t-345 132t-124 370v137q0 240 124 371t345 131zM909 561q1 191 -85 289t-242 98t-242 -98t-86 -289v-121q0 -190 86 -288t242 -98t242 98t85 288v121z" />
    <glyph glyph-name="Korea1.510" unicode="&#x3c0;" horiz-adv-x="1167" 
d="M887 164q0 -115 79 -115q39 0 76 12l23 -110q-53 -20 -127 -21q-190 0 -190 222v772h-334v-977h-133v977h-240v127h1085v-127h-239v-760z" />
    <glyph glyph-name="Korea1.511" unicode="&#x3c1;" horiz-adv-x="1142" 
d="M571 1071q221 0 340 -131t119 -371v-137q0 -238 -118 -370t-338 -132t-322 150v-572h-139v1061q0 240 118 371q119 131 340 131zM889 440v121q0 193 -81.5 290t-235.5 97t-236 -97t-82 -290v-121q0 -193 82 -290.5t236 -97.5t235.5 98t81.5 290z" />
    <glyph glyph-name="Korea1.512" unicode="&#x3c3;" horiz-adv-x="1155" 
d="M1114 1051v-123h-225q162 -135 162 -379v-117q0 -238 -124 -370t-345 -132t-345 132t-124 370v117q0 231 117 362q118 131 329 140h555zM909 541q1 191 -85 289t-242 98t-242 -98t-86 -289v-101q0 -190 86 -288t242 -98t242 98t85 288v101z" />
    <glyph glyph-name="Korea1.513" unicode="&#x3c4;" horiz-adv-x="1101" 
d="M686 -70q-104 0 -167 58q-62 58 -62 170v766h-424v127h1036v-127h-473v-754q0 -117 115 -117q57 1 118 21l29 -117q-68 -27 -172 -27z" />
    <glyph glyph-name="Korea1.514" unicode="&#x3c5;" horiz-adv-x="1193" 
d="M596 57q295 0 295 389v605h139v-637q0 -233 -110 -359q-111 -125 -324 -125t-323 125t-109 359v637h139v-605q0 -203 73 -296t220 -93z" />
    <glyph glyph-name="Korea1.515" unicode="&#x3c6;" horiz-adv-x="1372" 
d="M756 -492h-140v426q-229 18 -369 154t-141 354v117q0 236 162 374t418 138t418 -139t162 -373v-117q0 -217 -140 -353t-370 -155v-426zM1126 551q0 172 -100 275t-270 120v-893q170 17 270 121t100 277v100zM246 451q0 -171 100 -275t270 -123v893q-170 -16 -270 -120
t-100 -275v-100z" />
    <glyph glyph-name="Korea1.516" unicode="&#x3c7;" horiz-adv-x="1107" 
d="M963 -510q-129 0 -183 129l-235 594l-326 -705h-158l394 807l-232 572q-25 68 -69 67q-29 0 -66 -16l-37 106q59 28 127 28t106 -28t66 -102l207 -532l272 641h156l-342 -732l262 -638q15 -37 36.5 -61.5t98.5 9.5l39 -110q-63 -29 -116 -29z" />
    <glyph glyph-name="Korea1.517" unicode="&#x3c8;" horiz-adv-x="1486" 
d="M813 -492h-139v424q-242 16 -376 154t-134 385v580h141v-572q0 -383 369 -418v990h139v-990q369 35 369 418v572h141v-580q0 -248 -134 -385t-376 -154v-424z" />
    <glyph glyph-name="Korea1.518" unicode="&#x3c9;" horiz-adv-x="1499" 
d="M475 -70q-156 0 -259 124t-103 392v60q0 145 49 298t129 271l112 -59q-77 -135 -113 -250t-36 -268v-43q0 -211 68 -307t174 -95q76 0 130 68t54 168v487h139v-485q0 -100 55 -169t132 -69q106 0 173 95t66 307v43q0 152 -36 266t-111 252l110 59q80 -119 129 -271
t49 -298v-60q0 -268 -102 -392t-258 -124q-92 0 -165 47q-72 48 -107 132h-4q-35 -83 -109 -131t-166 -48z" />
    <glyph glyph-name="Korea1.1026" unicode="&#x401;" horiz-adv-x="1204" 
d="M170 1423h889v-127h-746v-528h703v-127h-703v-567h760v-127h-903v1476zM717 1556v148h135v-148h-135zM397 1556v148h135v-148h-135z" />
    <glyph glyph-name="Korea1.1020" unicode="&#x410;" horiz-adv-x="1347" 
d="M756 1423l547 -1476h-154l-164 459h-625l-167 -459h-148l549 1476h162zM553 930l-147 -400h534l-143 400q-61 166 -123 366q-49 -171 -121 -366z" />
    <glyph glyph-name="Korea1.1021" unicode="&#x411;" horiz-adv-x="1226" 
d="M313 678v-604h379q340 0 340 264v65q0 143 -80 209t-247 66h-392zM1051 1423v-127h-738v-493h387q477 0 478 -395v-72q0 -184 -119 -286t-354 -103h-535v1476h881z" />
    <glyph glyph-name="Korea1.1022" unicode="&#x412;" horiz-adv-x="1259" 
d="M170 -53v1476h471q469 0 469 -360v-43q0 -106 -56 -185t-182 -110q142 -20 224 -105t82 -233v-51q0 -184 -119 -286t-354 -103h-535zM311 657v-583h381q340 0 340 264v45q0 141 -86 208t-299 66h-336zM631 1298h-320v-520h334q162 0 242 56t80 190v37q0 129 -80 183
t-256 54z" />
    <glyph glyph-name="Korea1.1023" unicode="&#x413;" horiz-adv-x="1032" 
d="M313 -53h-143v1476h842v-125h-699v-1351z" />
    <glyph glyph-name="Korea1.1024" unicode="&#x414;" horiz-adv-x="1335" 
d="M371 1423h780v-1351h123v-473h-144v348h-942v-348h-143v473h109q158 266 192 568q18 161 22 252q3 91 3 265v266zM514 1298v-141q0 -346 -37 -603t-158 -482h689v1226h-494z" />
    <glyph glyph-name="Korea1.1025" unicode="&#x415;" horiz-adv-x="1204" 
d="M170 1423h889v-127h-746v-528h703v-127h-703v-567h760v-127h-903v1476z" />
    <glyph glyph-name="Korea1.1027" unicode="&#x416;" horiz-adv-x="1828" 
d="M844 -53v708h-49q-78 0 -128 -42t-124 -154l-334 -512h-168l397 598q94 141 185 176q-106 51 -195 254l-72 164q-41 94 -78 130q-38 36 -90 36t-90 -13l-37 125q47 19 133 19t148 -45t123 -172l80 -172q41 -91 67 -137t74 -85t105 -39h53v637h141v-637h53q82 0 132 62
t114 199l80 172q56 127 120 172t177 45q59 0 106 -19l-36 -125q-115 37 -180 -23q-38 -36 -78 -130l-72 -164q-88 -203 -195 -254q90 -35 185 -176l397 -598h-168l-334 512q-74 113 -124 155t-128 41h-49v-708h-141z" />
    <glyph glyph-name="Korea1.1028" unicode="&#x417;" horiz-adv-x="1118" 
d="M537 1446q225 0 341 -99t115 -268v-22q0 -111 -78 -202t-217 -130q156 -15 254 -109t99 -235v-31q1 -176 -129 -301t-402 -125t-479 164l72 113q203 -147 403 -147t296 90t97 204v27q0 216 -262 268q-59 12 -121 12h-166v123h172q131 0 224 89q92 89 92 192v18
q0 113 -78 176t-231 64q-213 0 -336 -172l-113 72q152 229 447 229z" />
    <glyph glyph-name="Korea1.1029" unicode="&#x418;" horiz-adv-x="1394" 
d="M1225 1423v-1476h-138v1292q-27 -61 -67 -133l-680 -1159h-170v1476h137v-1292q45 94 70 137l678 1155h170z" />
    <glyph glyph-name="Korea1.1030" unicode="&#x419;" horiz-adv-x="1394" 
d="M1225 1423v-1476h-138v1292q-27 -61 -67 -133l-680 -1159h-170v1476h137v-1292q45 94 70 137l678 1155h170zM696 1448q-116 0 -188 70t-78 182h107q20 -148 159 -148t160 148h107q-4 -112 -77.5 -182t-189.5 -70z" />
    <glyph glyph-name="Korea1.1031" unicode="&#x41a;" horiz-adv-x="1179" 
d="M147 -53v1476h144v-637h106q82 0 132 62t114 199l80 172q57 127 121 172t150 45t132 -19l-36 -125q-115 37 -180 -23q-38 -36 -79 -130l-71 -164q-88 -203 -195 -254q90 -35 185 -176l397 -598h-168l-334 512q-74 113 -124 155t-128 41h-102v-708h-144z" />
    <glyph glyph-name="Korea1.1032" unicode="&#x41b;" horiz-adv-x="1409" 
d="M418 1423h821v-1476h-143v1351h-535v-479q0 -332 -43 -488t-126 -241q-114 -116 -296 -156l-35 129q180 52 265 180q68 102 86 348q6 97 6 251v581z" />
    <glyph glyph-name="Korea1.1033" unicode="&#x41c;" horiz-adv-x="1687" 
d="M311 -53h-141v1476h176l500 -1081l502 1081h170v-1476h-142v1267q-16 -82 -69 -186l-396 -835h-135l-391 835q-53 106 -74 186v-1267z" />
    <glyph glyph-name="Korea1.1034" unicode="&#x41d;" horiz-adv-x="1386" 
d="M1018 -53v698h-760v-698h-143v1476h143v-635h760v635h143v-1476h-143z" />
    <glyph glyph-name="Korea1.1035" unicode="&#x41e;" horiz-adv-x="1417" 
d="M133 786q0 304 152 482t423 178t424 -177t152 -483v-202q0 -305 -152 -483q-153 -177 -423 -177t-423 177t-153 483v202zM1139 774q0 260 -115 402q-116 142 -316 142t-315 -141.5t-114 -402.5v-178q1 -260 115 -402t315 -142t315 142t115 402v178z" />
    <glyph glyph-name="Korea1.1036" unicode="&#x41f;" horiz-adv-x="1353" 
d="M1184 1423v-1476h-144v1351h-727v-1351h-143v1476h1014z" />
    <glyph glyph-name="Korea1.1037" unicode="&#x420;" horiz-adv-x="1224" 
d="M170 -53v1476h500q227 -1 350 -117t123 -305v-43q0 -186 -127 -307t-346 -121h-357v-583h-143zM657 1294h-344v-635h322q184 0 273 80t89 224v36q0 135 -86 215t-254 80z" />
    <glyph glyph-name="Korea1.1038" unicode="&#x421;" horiz-adv-x="1290" 
d="M703 1446q271 0 464 -148l-73 -112q-176 126 -386 126t-320 -142t-109 -379v-189q-1 -268 113 -404t334 -136t394 151l84 -113q-196 -176 -486 -176t-437 176t-148 502v182q-1 314 149 488t421 174z" />
    <glyph glyph-name="Korea1.1039" unicode="&#x422;" horiz-adv-x="1169" 
d="M41 1423h1087v-127h-473v-1349h-143v1349h-471v127z" />
    <glyph glyph-name="Korea1.1040" unicode="&#x423;" horiz-adv-x="1130" 
d="M31 1423h155l404 -913l362 913h148l-617 -1499l-127 43l158 391z" />
    <glyph glyph-name="Korea1.1041" unicode="&#x424;" horiz-adv-x="1519" 
d="M123 662v108q0 228 147 364t420 152v184h137v-184q270 -14 420 -151t150 -365v-108q0 -226 -150 -364t-420 -153v-198h-137v198q-272 14 -420 151q-147 137 -147 366zM1255 674v84q0 186 -113 286q-114 100 -315 115v-887q203 14 316 115q112 101 112 287zM264 758v-84
q0 -186 112 -286t314 -116v887q-202 -15 -314 -115t-112 -286z" />
    <glyph glyph-name="Korea1.1042" unicode="&#x425;" horiz-adv-x="1312" 
d="M1212 1423l-464 -710l495 -766h-176l-412 669l-422 -669h-163l497 768l-473 708h168l402 -618l387 618h161z" />
    <glyph glyph-name="Korea1.1043" unicode="&#x426;" horiz-adv-x="1347" 
d="M170 1423h143v-1351h707v1351h143v-1351h123v-473h-143v348h-973v1476z" />
    <glyph glyph-name="Korea1.1044" unicode="&#x427;" horiz-adv-x="1251" 
d="M143 1423h144v-495q0 -178 78 -246t262 -68t311 80v729h143v-1476h-143v614q-54 -33 -231.5 -71t-332.5 30q-85 37 -129 82t-73 123t-29 180v518z" />
    <glyph glyph-name="Korea1.1045" unicode="&#x428;" 
d="M170 1423h141v-1351h580v1351h141v-1351h580v1351h143v-1476h-1585v1476z" />
    <glyph glyph-name="Korea1.1046" unicode="&#x429;" horiz-adv-x="1939" 
d="M170 -53v1476h141v-1349h580v1349h141v-1349h580v1349h143v-1351h123v-473h-143v348h-1565z" />
    <glyph glyph-name="Korea1.1047" unicode="&#x42a;" horiz-adv-x="1351" 
d="M438 696v-624h379q340 0 340 272v72q0 143 -81 212t-247 68h-391zM10 1296v127h428v-602h387q225 0 351 -99t127 -302v-78q0 -186 -120 -290t-354 -105h-534v1349h-285z" />
    <glyph glyph-name="Korea1.1048" unicode="&#x42b;" horiz-adv-x="1673" 
d="M1360 1423h143v-1476h-143v1476zM1032 416q0 282 -327 280h-392v-624h379q340 0 340 272v72zM170 1423h143v-602h387q226 0 352 -99t126 -302v-78q0 -186 -120 -290t-353 -105h-535v1476z" />
    <glyph glyph-name="Korea1.1049" unicode="&#x42c;" horiz-adv-x="1226" 
d="M1032 416q0 282 -327 280h-392v-624h379q340 0 340 272v72zM170 1423h143v-602h387q226 0 352 -99t126 -302v-78q0 -186 -120 -290t-353 -105h-535v1476z" />
    <glyph glyph-name="Korea1.1050" unicode="&#x42d;" horiz-adv-x="1290" 
d="M322 633v123h694v35q0 241 -113 381t-321 140t-385 -124l-74 110q193 148 464 148t421 -174t149 -488v-182q0 -326 -147 -502t-438 -176t-486 176l84 111q174 -151 394 -151t336 138t116 404v31h-694z" />
    <glyph glyph-name="Korea1.1051" unicode="&#x42e;" horiz-adv-x="1857" 
d="M1163 1446q269 0 415 -176t146 -484v-202q0 -308 -145 -484t-415 -176t-416 176q-145 176 -146 484v34h-285v-671h-147v1476h147v-680h285v43q0 308 146 484t415 176zM1579 774q0 262 -109 402q-110 140 -308 140t-306 -139.5t-108 -402.5v-178q0 -262 108 -402t307 -140
t307 140t109 402v178z" />
    <glyph glyph-name="Korea1.1052" unicode="&#x42f;" horiz-adv-x="1294" 
d="M1124 1423v-1476h-143v637h-303q-78 0 -120 -41t-95 -152l-213 -444h-168l237 479q33 63 50 93q40 76 98 97q-145 23 -231 125t-86 250v31q0 178 123 290q124 112 341 111h510zM981 1294h-346q-168 0 -254 -72t-86 -204v-21q0 -285 362 -284h324v581z" />
    <glyph glyph-name="Korea1.1053" unicode="&#x430;" horiz-adv-x="1091" 
d="M448 -70q-144 0 -242 85t-97 231v45q0 137 101 220t288 83h311v102q0 121 -67 186t-195 64q-164 0 -326 -112l-67 106q186 131 384 131t303 -93t105 -259v-772h-135v135h-2q-35 -60 -126 -106t-235 -46zM809 477h-309q-128 0 -190 -52t-62 -140v-33q0 -100 69 -150
t177 -50t212 64t103 175v186z" />
    <glyph glyph-name="Korea1.1054" unicode="&#x431;" horiz-adv-x="1116" 
d="M595 999q212 0 334 -132t122 -369v-66q0 -238 -124 -370t-345 -132t-345 132t-124 370v88q0 266 39 439t137 291t252 176t395 83l16 -129q-156 -18 -260 -45q-246 -64 -341 -230q-52 -93 -72 -231q104 125 316 125zM909 489q1 191 -85 289t-242 98t-242 -98t-86 -289v-49
q0 -190 86 -288t242 -98t242 98t85 288v49z" />
    <glyph glyph-name="Korea1.1055" unicode="&#x432;" horiz-adv-x="1058" 
d="M164 -53v1104h428q180 0 277 -69t98 -204v-30q0 -174 -185 -220q109 -16 172 -79t64 -177v-30q0 -139 -99 -217t-280 -78h-475zM301 463v-393h307q268 0 269 172v28q0 98 -70 146t-234 47h-272zM561 928h-260v-342h270q127 0 192 35t64 129v26q0 88 -63 120
q-64 32 -203 32z" />
    <glyph glyph-name="Korea1.1056" unicode="&#x433;" horiz-adv-x="815" 
d="M164 1051h641v-121h-502v-983h-139v1104z" />
    <glyph glyph-name="Korea1.1057" unicode="&#x434;" horiz-adv-x="1167" 
d="M303 1051h694v-981h99v-404h-140v281h-776v-281h-139v404h88q128 215 155 386q15 99 17 157t2 190v248zM442 928v-125q0 -251 -26 -399t-127 -334h569v858h-416z" />
    <glyph glyph-name="Korea1.1058" unicode="&#x435;" horiz-adv-x="1116" 
d="M252 571h614v19q0 172 -80 265t-225 93t-227 -97t-82 -261v-19zM581 -70q-222 0 -345 133t-123 373v137q0 233 119 366q120 132 331 132t327 -133t116 -369v-114h-754v-19q0 -182 88 -282t258 -100t322 108l61 -107q-178 -125 -400 -125z" />
    <glyph glyph-name="Korea1.1060" unicode="&#x436;" horiz-adv-x="1429" 
d="M645 -53v516h-35q-61 0 -98 -27t-90 -106l-250 -383h-164l297 446q41 59 73 88t81 43q-88 31 -146 160l-53 123q-32 75 -60 105t-65 30t-67 -8l-27 113q37 14 111 14t120 -35t93 -129l59 -129q43 -94 82 -138t100 -44h39v465h139v-465h39q61 0 101 44q39 44 82 138
l59 129q45 94 92 129t121 35t111 -14l-27 -113q-32 8 -68 8t-65 -31t-60 -104l-53 -123q-57 -129 -145 -160q49 -14 81 -43t72 -88l297 -446h-164l-249 383q-53 80 -90 106t-99 27h-35v-516h-139z" />
    <glyph glyph-name="Korea1.1061" unicode="&#x437;" horiz-adv-x="903" 
d="M434 1071q174 0 272 -75t97 -201v-17q0 -197 -236 -250q121 -6 201 -74t80 -182v-22q0 -140 -108 -230t-306 -90q-246 0 -401 123l63 109q147 -109 338 -109q129 1 203 57t74 138v20q0 197 -283 197h-125v119h129q102 0 167 56t65 140v13q0 73 -58 115t-148 42
q-191 0 -302 -139l-93 84q135 176 371 176z" />
    <glyph glyph-name="Korea1.1062" unicode="&#x438;" horiz-adv-x="1202" 
d="M1038 1051v-1104h-137v940q-14 -39 -49 -101l-524 -839h-164v1104h137v-940q27 61 51 102l525 838h161z" />
    <glyph glyph-name="Korea1.1063" unicode="&#x439;" horiz-adv-x="1202" 
d="M1038 1051v-1104h-137v940q-14 -39 -49 -101l-524 -839h-164v1104h137v-940q27 61 51 102l525 838h161zM614 1262q139 0 160 147h107q-4 -113 -77.5 -183t-189.5 -70t-188 70.5t-78 182.5h107q20 -147 159 -147z" />
    <glyph glyph-name="Korea1.1064" unicode="&#x43a;" horiz-adv-x="999" 
d="M160 -53v1104h139v-465h94q61 0 101 44q39 44 81 138l64 129q45 96 90 130t121 34t111 -14l-27 -113q-32 8 -68 8t-65 -31t-60 -104l-53 -123q-57 -129 -145 -160q49 -14 81 -43t72 -88l297 -446h-166l-249 383q-52 80 -90 106t-99 27h-90v-516h-139z" />
    <glyph glyph-name="Korea1.1065" unicode="&#x43b;" horiz-adv-x="1169" 
d="M256 1051h750v-1104h-140v981h-471v-342q0 -264 -30 -375q-70 -242 -318 -277l-27 117q141 25 189 148q47 123 47 385v467z" />
    <glyph glyph-name="Korea1.1066" unicode="&#x43c;" horiz-adv-x="1398" 
d="M299 -53h-135v1104h203l335 -775l334 775h199v-1104h-139v948q-20 -72 -52 -139l-294 -647h-105l-291 647q-39 82 -55 139v-948z" />
    <glyph glyph-name="Korea1.1067" unicode="&#x43d;" horiz-adv-x="1212" 
d="M164 1051h139v-473h606v473h140v-1104h-140v508h-606v-508h-139v1104z" />
    <glyph glyph-name="Korea1.1068" unicode="&#x43e;" horiz-adv-x="1163" 
d="M582 1071q221 0 345 -132t124 -370v-137q0 -238 -124 -370t-345 -132t-345 132t-124 370v137q0 240 124 371t345 131zM909 561q1 191 -85 289t-242 98t-242 -98t-86 -289v-121q0 -190 86 -288t242 -98t242 98t85 288v121z" />
    <glyph glyph-name="Korea1.1069" unicode="&#x43f;" horiz-adv-x="1165" 
d="M164 1051h837v-1104h-139v981h-559v-981h-139v1104z" />
    <glyph glyph-name="Korea1.1070" unicode="&#x440;" horiz-adv-x="1185" 
d="M303 78v-570h-139v1543h137v-156q49 82 138 129t194 47q199 0 319 -125t119 -348v-195q-1 -221 -123 -347t-326 -126t-317 148h-2zM932 424v154q0 174 -82 270t-215 96t-233 -85t-99 -222v-324q-1 -100 91 -180q92 -79 232 -79t223 98t83 272z" />
    <glyph glyph-name="Korea1.1071" unicode="&#x441;" horiz-adv-x="1011" 
d="M575 1071q213 0 357 -108l-64 -109q-132 92 -288 92t-241 -98t-85 -270v-142q0 -180 85 -279t249 -99t309 108l66 -111q-163 -125 -385 -125t-344 133t-121 373v137q1 236 125 367t337 131z" />
    <glyph glyph-name="Korea1.1072" unicode="&#x442;" horiz-adv-x="866" 
d="M25 1051h817v-123h-340v-981h-140v981h-337v123z" />
    <glyph glyph-name="Korea1.1073" unicode="&#x443;" horiz-adv-x="1034" 
d="M35 1051h143l342 -949l336 949h143l-573 -1561l-119 43l142 395z" />
    <glyph glyph-name="Korea1.1074" unicode="&#x444;" horiz-adv-x="1345" 
d="M598 1423h135v-354q240 -16 372 -149t132 -357v-125q0 -223 -132 -356t-372 -150v-397h-135v397q-240 16 -372 150t-132 356v125q0 223 132 357t372 149v354zM1100 555q0 174 -96 272t-271 115v-885q175 17 271 115t96 274v109zM231 446q-1 -174 97 -273t270 -116v885
q-176 -16 -271 -114t-96 -273v-109z" />
    <glyph glyph-name="Korea1.1075" unicode="&#x445;" horiz-adv-x="1042" 
d="M979 1051l-371 -533l389 -571h-161l-314 485l-323 -485h-154l393 571l-370 533h155l303 -451l301 451h152z" />
    <glyph glyph-name="Korea1.1076" unicode="&#x446;" horiz-adv-x="1144" 
d="M836 1051h139v-981h98v-404h-139v281h-770v1104h139v-981h533v981z" />
    <glyph glyph-name="Korea1.1077" unicode="&#x447;" horiz-adv-x="1058" 
d="M82 1051h139v-363q0 -223 256 -223q182 0 283 70v516h139v-1121h-139v480q-106 -68 -284 -68t-287 81q-108 81 -107 247v381z" />
    <glyph glyph-name="Korea1.1078" unicode="&#x448;" horiz-adv-x="1617" 
d="M1454 -53h-1290v1104h139v-981h436v981h140v-981h436v981h139v-1104z" />
    <glyph glyph-name="Korea1.1079" unicode="&#x449;" horiz-adv-x="1624" 
d="M1454 1051v-981h98v-404h-139v281h-1249v1104h139v-981h436v981h140v-981h436v981h139z" />
    <glyph glyph-name="Korea1.1080" unicode="&#x44a;" horiz-adv-x="1099" 
d="M362 510v-440h293q127 0 186 48q58 48 58 148v41q0 107 -55 155t-180 48h-302zM10 930v121h352v-418h300q377 0 376 -322v-47q0 -317 -374 -317h-441v983h-213z" />
    <glyph glyph-name="Korea1.1081" unicode="&#x44b;" horiz-adv-x="1406" 
d="M1104 1051h139v-1104h-139v1104zM303 510v-440h293q127 0 185 48t59 148v41q0 107 -56 155t-180 48h-301zM164 1051h139v-418h299q377 0 377 -322v-47q0 -317 -375 -317h-440v1104z" />
    <glyph glyph-name="Korea1.1082" unicode="&#x44c;" horiz-adv-x="1040" 
d="M303 510v-440h293q127 0 185 48t59 148v41q0 107 -56 155t-180 48h-301zM164 1051h139v-418h299q377 0 377 -322v-47q0 -317 -375 -317h-440v1104z" />
    <glyph glyph-name="Korea1.1083" unicode="&#x44d;" horiz-adv-x="1011" 
d="M276 446v123h482v9q0 172 -85 270t-242 98t-288 -92l-63 109q143 109 356 109t338 -132t125 -367v-137q0 -240 -122 -373t-344 -133t-384 125l66 111q145 -110 309 -110t249 100t85 280v10h-482z" />
    <glyph glyph-name="Korea1.1084" unicode="&#x44e;" horiz-adv-x="1511" 
d="M950 1071q219 0 334 -132t115 -370v-137q0 -238 -115 -370t-334 -132t-334 132t-114 370v10h-195v-495h-143v1104h143v-490h195v8q0 238 114 370q115 132 334 132zM950 53q307 0 307 387v121q0 387 -307 387t-307 -387v-121q0 -387 307 -387z" />
    <glyph glyph-name="Korea1.1085" unicode="&#x44f;" horiz-adv-x="1087" 
d="M924 1051v-1104h-140v463h-239q-61 0 -99 -28t-75 -103l-160 -332h-162l178 358q55 115 129 141q-114 18 -182 92t-68 189v23q0 145 104 223t275 78h439zM784 928h-274q-264 0 -264 -180v-15q0 -201 282 -201h256v396z" />
    <glyph glyph-name="Korea1.1059" unicode="&#x451;" horiz-adv-x="1116" 
d="M252 571h614v19q0 172 -80 265t-225 93t-227 -97t-82 -261v-19zM581 -70q-222 0 -345 133t-123 373v137q0 233 119 366q120 132 331 132t327 -133t116 -369v-114h-754v-19q0 -182 88 -282t258 -100t322 108l61 -107q-178 -125 -400 -125zM666 1219v147h135v-147h-135z
M346 1219v147h135v-147h-135z" />
    <glyph glyph-name="Korea1.97" unicode="&#x2010;" horiz-adv-x="856" 
d="M786 670v-150h-716v150h716z" />
    <glyph glyph-name="Korea1.110" unicode="&#x2014;" horiz-adv-x="1687" 
d="M1688 698v-118h-1688v118h1688z" />
    <glyph glyph-name="Korea1.111" unicode="&#x2016;" horiz-adv-x="1863" 
d="M809 1597v-1966h-115v1966h115zM1169 1597v-1966h-116v1966h116z" />
    <glyph glyph-name="Korea1.114" unicode="&#x2018;" horiz-adv-x="409" 
d="M352 1579l-86 -461h-170l144 461h112z" />
    <glyph glyph-name="Korea1.115" unicode="&#x2019;" horiz-adv-x="409" 
d="M57 1090l86 460h170l-143 -460h-113z" />
    <glyph glyph-name="Korea1.8238" unicode="&#x201b;" horiz-adv-x="962" 
 />
    <glyph glyph-name="Korea1.116" unicode="&#x201c;" horiz-adv-x="716" 
d="M659 1579l-86 -461h-170l144 461h112zM358 1579l-86 -461h-170l144 461h112z" />
    <glyph glyph-name="Korea1.117" unicode="&#x201d;" horiz-adv-x="716" 
d="M57 1090l86 460h170l-143 -460h-113zM358 1090l86 460h170l-143 -460h-113z" />
    <glyph glyph-name="Korea1.8237" unicode="&#x201f;" horiz-adv-x="962" 
 />
    <glyph glyph-name="Korea1.245" unicode="&#x2020;" horiz-adv-x="1011" 
d="M440 -186v1069h-331v118h331v418h129v-418h334v-118h-334v-1069h-129z" />
    <glyph glyph-name="Korea1.246" unicode="&#x2021;" horiz-adv-x="1011" 
d="M109 231v119h331v533h-331v118h331v418h129v-418h334v-118h-334v-533h334v-119h-334v-417h-129v417h-331z" />
    <glyph glyph-name="Korea1.8607" unicode="&#x2022;" 
 />
    <glyph glyph-name="Korea1.105" unicode="&#x2025;" horiz-adv-x="1863" 
d="M1120 518v205h207v-205h-207zM535 518v205h206v-205h-206z" />
    <glyph glyph-name="Korea1.106" unicode="&#x2026;" horiz-adv-x="1863" 
d="M1374 518v205h207v-205h-207zM829 518v205h207v-205h-207zM285 518v205h207v-205h-207z" />
    <glyph glyph-name="Korea1.216" unicode="&#x2030;" horiz-adv-x="2521" 
d="M514 -51h-131l883 1474h129zM1318 702q150 0 234 -89t84 -251v-92q0 -162 -84 -251t-234 -89t-234 89t-83 251v92q0 162 83.5 251t233.5 89zM1319 35q199 0 199 239v84q0 240 -199 240t-199 -240v-84q0 -239 199 -239zM460 1440q150 0 234 -89t84 -251v-92
q0 -162 -84 -251t-234 -89t-234 89t-83 251v92q0 162 83.5 251t233.5 89zM461 772q199 0 198 240v84q0 240 -198 239q-199 0 -199 -239v-84q0 -240 199 -240zM2060 702q150 0 234 -89t84 -251v-92q0 -162 -84 -251t-234 -89t-234 89t-83 251v92q-1 162 83 251t234 89z
M2060 35q199 0 199 239v84q0 240 -199 240t-198 -240v-84q-1 -239 198 -239z" />
    <glyph glyph-name="Korea1.139" unicode="&#x2032;" horiz-adv-x="935" 
d="M473 1495h176l-272 -496h-90z" />
    <glyph glyph-name="Korea1.140" unicode="&#x2033;" horiz-adv-x="1208" 
d="M473 1495h170l-272 -496h-84zM752 1495h170l-273 -496h-84z" />
    <glyph glyph-name="Korea1.8582" unicode="&#x2034;" horiz-adv-x="1206" 
 />
    <glyph glyph-name="Korea1.9326" unicode="&#x2035;" 
 />
    <glyph glyph-name="Korea1.9324" unicode="&#x2036;" 
 />
    <glyph glyph-name="Korea1.8612" unicode="&#x2039;" 
 />
    <glyph glyph-name="Korea1.8613" unicode="&#x203a;" 
 />
    <glyph glyph-name="Korea1.156" unicode="&#x203b;" horiz-adv-x="1863" 
d="M1008 643l663 -655l-92 -90l-655 661l-654 -661l-86 86l660 655l-656 657l84 90l654 -661l659 661l82 -86zM1053 1251h2q1 -57 -41 -100t-100 -43t-101 43t-43 100t42 99t99 42t100 -41q42 -43 42 -100zM444 637h2q0 -55 -42 -97t-98 -42t-100 42t-44 98t43 99t99 43
t98 -43t42 -100zM1702 639q0 -57 -42 -98t-98 -41t-100 41q-43 41 -42.5 99t40.5 99t98 41t101 -42t43 -99zM1055.5 8q0.5 -57 -41.5 -99t-100 -42t-99 41.5t-41 99.5t40 100t97 42t101 -42q43 -43 43.5 -100z" />
    <glyph glyph-name="Korea1.8763" unicode="&#x203c;" 
 />
    <glyph glyph-name="Korea1.357" unicode="&#x203e;" horiz-adv-x="1863" 
d="M1853 1561v-80h-1843v80h1843z" />
    <glyph glyph-name="Korea1.8599" unicode="&#x2042;" 
 />
    <glyph glyph-name="Korea1.845" unicode="&#x2074;" horiz-adv-x="819" 
d="M508 1182h125v-285h135v-113h-135v-202h-125v202h-457v99l424 637h143l-419 -623h309v285z" />
    <glyph glyph-name="Korea1.8239" unicode="&#x207a;" horiz-adv-x="962" 
 />
    <glyph glyph-name="Korea1.8240" unicode="&#x207b;" horiz-adv-x="962" 
 />
    <glyph glyph-name="Korea1.8248" unicode="&#x207c;" horiz-adv-x="962" 
 />
    <glyph glyph-name="Korea1.8250" unicode="&#x207d;" horiz-adv-x="962" 
 />
    <glyph glyph-name="Korea1.8251" unicode="&#x207e;" horiz-adv-x="962" 
 />
    <glyph glyph-name="Korea1.846" unicode="&#x207f;" horiz-adv-x="952" 
d="M844 1178v-596h-137v565q0 223 -211 223q-96 0 -168 -66t-72 -155v-567h-135v893h131v-119q92 135 272 135q144 0 232 -83t88 -230z" />
    <glyph glyph-name="Korea1.847" unicode="&#x2081;" horiz-adv-x="819" 
d="M553 -229h-129v786l-221 -127l-60 102l299 177h111v-938z" />
    <glyph glyph-name="Korea1.848" unicode="&#x2082;" horiz-adv-x="819" 
d="M563 479v13q0 53 -45 86t-117 32q-131 0 -206 -137l-97 66q94 188 299 188q139 -1 217 -65t78 -170v-15q0 -121 -147 -278l-293 -316h473v-112h-631v108l350 383q119 131 119 217z" />
    <glyph glyph-name="Korea1.849" unicode="&#x2083;" horiz-adv-x="819" 
d="M395 731q129 0 206 -63t77 -170v-15q0 -160 -143 -215q90 -16 139 -75t49 -142v-18q0 -115 -83 -195t-247 -80t-299 107l62 100q127 -90 232 -90t155 43q49 43 49 113v14q0 164 -199 164h-110v113h106q82 0 121 46t39 113v13q0 59 -43 92t-111 32q-106 0 -180 -94l-92 68
q94 139 272 139z" />
    <glyph glyph-name="Korea1.850" unicode="&#x2084;" horiz-adv-x="819" 
d="M508 371h125v-285h135v-113h-135v-202h-125v202h-457v99l424 637h143l-419 -623h309v285z" />
    <glyph glyph-name="Korea1.96" unicode="&#x20a9;" horiz-adv-x="1939" 
d="M82 723v104h201l-144 596h137l132 -596h346l143 596h147l144 -596h348l135 596h131l-145 -596h201v-104h-228l-188 -776h-156l-186 776h-262l-187 -776h-155l-189 776h-225zM1214 723l152 -623h6l139 623h-297zM432 723l139 -623h7l149 623h-295zM969 1270l-107 -443h213
z" />
    <glyph glyph-name="Korea1.141" unicode="&#x2103;" horiz-adv-x="1638" 
d="M510 1274q0 -78 -54 -131t-140 -53t-141 53q-54 53 -54 131t54.5 131t140.5 53t140 -53t54 -131zM514 784q0 314 150 488t420 174t464 -148l-73 -112q-175 126 -385 126t-320 -142t-111 -379v-189q0 -268 114 -404t334 -136t394 151l84 -113q-195 -176 -485 -176
t-438 176q-147 176 -148 502v182zM316 1167q44 0 72 30t28 76.5t-28 76.5t-73 30t-73 -30t-28 -76t30 -77q28 -30 72 -30z" />
    <glyph glyph-name="Korea1.215" unicode="&#x2109;" horiz-adv-x="1638" 
d="M784 -53h-143v1476h877v-127h-734v-565h691v-127h-691v-657zM510 1274q0 -78 -54 -131t-140 -53t-141 53q-54 53 -54 131t54.5 131t140.5 53t140 -53t54 -131zM316 1167q44 0 72 30t28 76.5t-28 76.5t-73 30t-73 -30t-28 -76t30 -77q28 -30 72 -30z" />
    <glyph glyph-name="Korea1.590" unicode="&#x2113;" horiz-adv-x="1863" 
d="M987 -70q-113 0 -183 60t-69 180v887q0 389 248 389q148 0 202 -119q46 -101 46 -270v-185q0 -481 -352 -636v-39q0 -137 118 -138q92 0 150 62l70 -98q-74 -93 -230 -93zM1087 870v158q0 215 -48 261q-22 22 -56 22q-63 0 -83 -74t-21 -209v-647q92 39 150 166t58 323z
" />
    <glyph glyph-name="Korea1.258" unicode="&#x2116;" horiz-adv-x="1863" 
d="M160 -53v1476h174l428 -1104q31 -84 43 -188v1292h137v-1476h-174l-430 1104q-35 96 -41 184v-1288h-137zM1733 666v-84q0 -182 -86 -282t-250 -100t-250 99.5t-86 282.5v84q0 182 86 282t250 100t250 -100t86 -282zM1196 594q0 -275 203 -275t203 275v59q0 272 -205 273
q-105 0 -153 -67t-48 -206v-59zM1106 -53v131h584v-131h-584z" />
    <glyph glyph-name="Korea1.263" unicode="&#x2121;" horiz-adv-x="2158" 
d="M823 1051h590v-127h-446v-340h403v-127h-403v-383h460v-127h-604v1104zM20 1423h924v-127h-393v-1349h-141v1349h-390v127zM1569 1051h143v-977h426v-127h-569v1104z" />
    <glyph glyph-name="Korea1.260" unicode="&#x2122;" horiz-adv-x="1517" 
d="M682 756v667h162l190 -407h4l181 407h165v-667h-112v534h-6l-183 -401h-100l-190 401h-5v-534h-106zM266 756v565h-211v102h541v-102h-211v-565h-119z" />
    <glyph glyph-name="Korea1.643" unicode="&#x2126;" horiz-adv-x="1863" 
d="M184 -53v119h406q-117 68 -192 210t-74 320v203q0 301 165 474q167 173 443 173t442 -174t166 -473v-203q0 -178 -75 -320t-191 -210h403v-119h-579v131q117 59 207 198t90 326v184q0 258 -125 394t-338 136t-338 -135.5t-125 -394.5v-184q0 -195 83 -333t212 -191v-131
h-580z" />
    <glyph glyph-name="Korea1.142" unicode="&#x212b;" horiz-adv-x="1347" 
d="M674 1700q82 0 136 -54t54 -128q0 -100 -86 -156l525 -1415h-154l-164 459h-625l-167 -459h-148l524 1413q-86 53 -86 158q1 74 55 128t136 54zM553 930l-147 -400h534l-143 400q-61 166 -123 366q-49 -171 -121 -366zM570.5 1516q0.5 -46 28.5 -76q27 -30 73 -31
q46 0 74 29.5t28 77.5t-28 76t-74 28t-74 -29t-27.5 -75z" />
    <glyph glyph-name="Korea1.749" unicode="&#x2153;" horiz-adv-x="1884" 
d="M362 -135l1072 1587h137l-1071 -1587h-138zM553 485h-129v787l-221 -127l-60 102l299 176h111v-938zM1460 786q129 0 206 -63t77 -170v-14q0 -160 -144 -215q89 -16 139 -76t50 -142v-18q0 -114 -83 -194t-247 -80t-299 106l62 100q127 -90 232 -90t155 43q49 43 49 113
v14q0 164 -199 164h-110v113h106q82 0 121 46t39 114v12q0 59 -43 92t-111 33q-106 0 -180 -94l-92 67q94 139 272 139z" />
    <glyph glyph-name="Korea1.750" unicode="&#x2154;" horiz-adv-x="1961" 
d="M440 -135l1071 1587h138l-1071 -1587h-138zM551 1194v12q0 53 -45 86t-117 33q-131 0 -207 -137l-96 65q94 188 299 189q139 0 217 -65t78 -171v-14q0 -121 -148 -279l-292 -315h473v-113h-631v109l350 383q119 131 119 217zM1538 786q129 0 206 -63t77 -170v-14
q0 -160 -144 -215q89 -16 139 -76t50 -142v-18q0 -114 -83 -194t-247 -80t-299 106l61 100q126 -90 232 -90t156 43q49 43 49 113v14q0 164 -199 164h-111v113h107q82 0 121 46t39 114v12q0 59 -43 92t-111 33q-106 0 -180 -94l-92 67q94 139 272 139z" />
    <glyph glyph-name="Korea1.753" unicode="&#x215b;" horiz-adv-x="1906" 
d="M362 -135l1072 1587h137l-1071 -1587h-138zM1321 539v-13q0 -70 44.5 -114t114.5 -44t114 44.5t44 113.5v13q0 63 -44 101t-116 38t-114 -38t-43 -101zM1296 92v-16q0 -66 50 -108t134 -42t132.5 42t48.5 108v16q0 74 -50.5 117t-130.5 43t-132 -44t-52 -116zM1169 72v22
q-1 78 47 137t121 82q-139 66 -139 213v21q0 105 77 173t203 68t204 -70t79 -171v-21q0 -147 -141 -213q76 -23 123 -82t47 -137v-22q0 -114 -85 -186t-226 -72t-226 71q-84 72 -84 187zM553 485h-129v787l-221 -127l-60 102l299 176h111v-938z" />
    <glyph glyph-name="Korea1.754" unicode="&#x215c;" horiz-adv-x="1937" 
d="M393 -135l1071 1587h138l-1072 -1587h-137zM1352 539v-13q0 -70 44 -114t114 -44t115 45q44 44 44 113v13q0 63 -44.5 101t-116.5 38t-114 -38t-42 -101zM1327 92v-16q0 -66 50 -108t133 -42t132 42t50 108v16q0 74 -50 117t-130 43t-132.5 -44t-52.5 -116zM1200 72v22
q0 78 47 137t121 82q-139 66 -139 213v21q1 105 77 173t202 68t205 -70t79 -171v-21q0 -147 -141 -213q76 -23 123 -82t47 -137v-22q-1 -114 -85 -186t-226 -72t-226 72t-84 186zM395 1442q129 0 206 -64t77 -170v-14q0 -160 -143 -215q90 -15 139 -75t49 -142v-19
q0 -115 -83 -195t-247 -80t-299 107l62 101q127 -90 232 -90t155 43q49 43 49 112v15q0 164 -199 164h-110v112h106q82 0 121 46t39 114v12q0 59 -43 92t-111 33q-106 0 -180 -94l-92 68q94 139 272 139z" />
    <glyph glyph-name="Korea1.755" unicode="&#x215d;" horiz-adv-x="1910" 
d="M367 -135l1071 1587h137l-1071 -1587h-137zM1325 539v-13q0 -70 44.5 -114t114.5 -44t114 44.5t44 113.5v13q0 63 -44 101t-116 38t-114 -38t-43 -101zM1300 92v-16q0 -66 50 -108t134 -42t132.5 42t48.5 108v16q0 74 -50.5 117t-130.5 43t-132 -44t-52 -116zM1174 72v22
q0 78 47 137t120 82q-139 66 -139 213v21q0 105 77 173t203 68t205 -70t78 -171v-21q0 -147 -141 -213q76 -23 123 -82t47 -137v-22q0 -114 -85 -186t-226 -72t-226 71q-83 72 -83 187zM725 770q0 -117 -81 -209t-246 -92t-310 109l64 100q111 -92 233 -92t166 53
q43 53 43 129v16q0 180 -176 181q-109 0 -182 -74h-93l31 532h492v-116h-375l-17 -283q58 50 182 50t196 -80t73 -203v-21z" />
    <glyph glyph-name="Korea1.756" unicode="&#x215e;" horiz-adv-x="1751" 
d="M207 -135l1071 1587h137l-1071 -1587h-137zM1165 539v-13q0 -70 44 -114t115 -44t115 44.5t44 113.5v13q0 63 -44 101t-116 38t-115 -38t-43 -101zM1141 92v-16q0 -66 50 -108t133 -42t132 42t49 108v16q0 74 -50 117t-130 43t-132 -44t-52 -116zM1014 72v22q0 78 47 137
t121 82q-139 66 -140 213v21q0 105 77 173t203 68t205 -70t79 -171v-21q0 -147 -142 -213q76 -23 123 -82t47 -137v-22q0 -114 -85 -186t-226 -72t-225 72t-84 186zM82 1313v110h637v-98l-375 -840h-133l371 828h-500z" />
    <glyph glyph-name="Korea1.461" unicode="&#x2160;" horiz-adv-x="1863" 
d="M860 -53v1476h144v-1476h-144z" />
    <glyph glyph-name="Korea1.462" unicode="&#x2161;" horiz-adv-x="1863" 
d="M612 -53v1476h144v-1476h-144zM1108 -53v1476h143v-1476h-143z" />
    <glyph glyph-name="Korea1.463" unicode="&#x2162;" horiz-adv-x="1863" 
d="M379 -53v1476h143v-1476h-143zM1341 -53v1476h144v-1476h-144zM860 -53v1476h144v-1476h-144z" />
    <glyph glyph-name="Korea1.464" unicode="&#x2163;" horiz-adv-x="1863" 
d="M1092 -53l-422 1476h157l353 -1310h2l352 1310h149l-423 -1476h-168zM387 -53v1476h143v-1476h-143z" />
    <glyph glyph-name="Korea1.465" unicode="&#x2164;" horiz-adv-x="1863" 
d="M848 -53l-526 1476h157l455 -1329h2l455 1329h149l-528 -1476h-164z" />
    <glyph glyph-name="Korea1.466" unicode="&#x2165;" horiz-adv-x="1863" 
d="M602 -53l-422 1476h158l352 -1317h2l352 1317h150l-424 -1476h-168zM1333 -53v1476h144v-1476h-144z" />
    <glyph glyph-name="Korea1.467" unicode="&#x2166;" horiz-adv-x="1863" 
d="M459 -53l-379 1476h158l315 -1306h2l307 1306h150l-373 -1476h-180zM1133 -53v1476h143v-1476h-143zM1501 -53v1476h144v-1476h-144z" />
    <glyph glyph-name="Korea1.468" unicode="&#x2167;" horiz-adv-x="1863" 
d="M367 -53l-277 1476h154l217 -1300h2l209 1300h145l-270 -1476h-180zM922 -53v1476h139v-1476h-139zM1251 -53v1476h140v-1476h-140zM1571 -53v1476h139v-1476h-139z" />
    <glyph glyph-name="Korea1.469" unicode="&#x2168;" horiz-adv-x="1863" 
d="M1671 1423l-377 -710l408 -766h-172l-334 669l-344 -669h-160l410 768l-385 708h164l323 -618l309 618h158zM412 -53v1476h143v-1476h-143z" />
    <glyph glyph-name="Korea1.470" unicode="&#x2169;" horiz-adv-x="1863" 
d="M1487 1423l-465 -710l496 -766h-177l-411 669l-422 -669h-164l498 768l-473 708h168l401 -618l387 618h162z" />
    <glyph glyph-name="Korea1.451" unicode="&#x2170;" horiz-adv-x="1863" 
d="M862 -53v1104h139v-1104h-139zM856 1262v155h152v-155h-152z" />
    <glyph glyph-name="Korea1.452" unicode="&#x2171;" horiz-adv-x="1863" 
d="M600 -53v1104h139v-1104h-139zM594 1262v155h151v-155h-151zM1122 -53v1104h140v-1104h-140zM1116 1262v155h152v-155h-152z" />
    <glyph glyph-name="Korea1.453" unicode="&#x2172;" horiz-adv-x="1863" 
d="M393 -53v1104h139v-1104h-139zM387 1262v155h152v-155h-152zM862 -53v1104h139v-1104h-139zM856 1262v155h152v-155h-152zM1329 -53v1104h139v-1104h-139zM1323 1262v155h152v-155h-152z" />
    <glyph glyph-name="Korea1.454" unicode="&#x2173;" horiz-adv-x="1863" 
d="M461 -53v1104h139v-1104h-139zM455 1262v155h151v-155h-151zM1219 -53h-160l-320 1104h148l256 -957l246 957h143z" />
    <glyph glyph-name="Korea1.455" unicode="&#x2174;" horiz-adv-x="1863" 
d="M1012 -53h-156l-403 1104h149l334 -961l328 961h145z" />
    <glyph glyph-name="Korea1.456" unicode="&#x2175;" horiz-adv-x="1863" 
d="M1264 -53v1104h139v-1104h-139zM1257 1262v155h152v-155h-152zM811 -53h-160l-319 1104h147l256 -957l246 957h143z" />
    <glyph glyph-name="Korea1.457" unicode="&#x2176;" horiz-adv-x="1863" 
d="M1110 -53v1104h139v-1104h-139zM1104 1262v155h151v-155h-151zM657 -53h-159l-312 1104h148l248 -957l237 957h144zM1483 -53v1104h139v-1104h-139zM1477 1262v155h151v-155h-151z" />
    <glyph glyph-name="Korea1.458" unicode="&#x2177;" horiz-adv-x="1863" 
d="M963 -53v1104h139v-1104h-139zM956 1262v155h152v-155h-152zM571 -53h-159l-291 1104h145l230 -957l219 957h141zM1270 -53v1104h139v-1104h-139zM1264 1262v155h151v-155h-151zM1577 -53v1104h139v-1104h-139zM1571 1262v155h151v-155h-151z" />
    <glyph glyph-name="Korea1.459" unicode="&#x2178;" horiz-adv-x="1863" 
d="M479 -53v1104h139v-1104h-139zM473 1262v155h152v-155h-152zM1563 1051l-310 -533l328 -571h-160l-256 477l-260 -477h-153l331 571l-309 533h154l246 -443l237 443h152z" />
    <glyph glyph-name="Korea1.460" unicode="&#x2179;" horiz-adv-x="1863" 
d="M1389 1051l-371 -533l389 -571h-162l-313 485l-324 -485h-153l393 571l-371 533h156l303 -451l301 451h152z" />
    <glyph glyph-name="Korea1.171" unicode="&#x2190;" horiz-adv-x="1863" 
d="M1649 764v-121h-1133l154 -258l-31 -35l-426 355l426 354l31 -35l-154 -260h1133z" />
    <glyph glyph-name="Korea1.172" unicode="&#x2191;" horiz-adv-x="1863" 
d="M991 0h-119v1133l-260 -154l-34 31l354 426l354 -426l-35 -31l-260 154v-1133z" />
    <glyph glyph-name="Korea1.170" unicode="&#x2192;" horiz-adv-x="1863" 
d="M213 643v121h1133l-154 260l31 35l426 -354l-426 -355l-31 35l154 258h-1133z" />
    <glyph glyph-name="Korea1.173" unicode="&#x2193;" horiz-adv-x="1863" 
d="M872 1407h119v-1131l260 152l35 -31l-354 -426l-354 426l34 31l260 -152v1131z" />
    <glyph glyph-name="Korea1.174" unicode="&#x2194;" horiz-adv-x="1863" 
d="M424 643l154 -258l-31 -35l-426 355l426 354l31 -35l-154 -260h1016l-154 260l31 35l426 -354l-426 -355l-31 35l154 258h-1016z" />
    <glyph glyph-name="Korea1.247" unicode="&#x2195;" horiz-adv-x="1863" 
d="M1251 979l-260 154v-857l260 152l35 -31l-354 -426l-354 426l34 31l260 -152v857l-260 -154l-34 31l354 426l354 -426z" />
    <glyph glyph-name="Korea1.250" unicode="&#x2196;" horiz-adv-x="1863" 
d="M1655 63l-84 -86l-1192 1190l-74 -290l-47 -3l-51 551l551 -51l-2 -47l-291 -74z" />
    <glyph glyph-name="Korea1.248" unicode="&#x2197;" horiz-adv-x="1863" 
d="M291 -23l-84 86l1190 1190l-291 74l-2 47l551 51l-51 -551l-48 3l-73 290z" />
    <glyph glyph-name="Korea1.251" unicode="&#x2198;" horiz-adv-x="1863" 
d="M207 1346l84 84l1192 -1190l76 290l47 5l51 -553l-553 51l4 47l291 76z" />
    <glyph glyph-name="Korea1.249" unicode="&#x2199;" horiz-adv-x="1863" 
d="M1573 1430l84 -84l-1192 -1190l291 -76l4 -47l-553 -51l51 553l47 -5l76 -290z" />
    <glyph glyph-name="Korea1.8868" unicode="&#x21b0;" 
 />
    <glyph glyph-name="Korea1.8865" unicode="&#x21b1;" 
 />
    <glyph glyph-name="Korea1.8864" unicode="&#x21b2;" 
 />
    <glyph glyph-name="Korea1.8869" unicode="&#x21b3;" 
 />
    <glyph glyph-name="Korea1.8867" unicode="&#x21b4;" 
 />
    <glyph glyph-name="Korea1.8884" unicode="&#x21bc;" 
 />
    <glyph glyph-name="Korea1.8885" unicode="&#x21c0;" 
 />
    <glyph glyph-name="Korea1.8896" unicode="&#x21c4;" 
 />
    <glyph glyph-name="Korea1.8897" unicode="&#x21c5;" 
 />
    <glyph glyph-name="Korea1.8816" unicode="&#x21cd;" 
 />
    <glyph glyph-name="Korea1.8815" unicode="&#x21cf;" 
 />
    <glyph glyph-name="Korea1.8814" unicode="&#x21d0;" 
 />
    <glyph glyph-name="Korea1.8854" unicode="&#x21d1;" 
 />
    <glyph glyph-name="Korea1.195" unicode="&#x21d2;" horiz-adv-x="1863" 
d="M10 756v90h1485l-233 229l67 66l524 -527l-524 -528l-67 66l235 233h-1487v90h1575l141 139q-12 13 -141 142h-1575z" />
    <glyph glyph-name="Korea1.8855" unicode="&#x21d3;" 
 />
    <glyph glyph-name="Korea1.196" unicode="&#x21d4;" horiz-adv-x="1863" 
d="M1331 1141l524 -527l-524 -528l-67 66l235 233h-1137l236 -233l-68 -66l-524 528l524 527l68 -66l-233 -229h1132l-233 229zM274 756l-141 -142l141 -139h1313l142 139l-142 142h-1313z" />
    <glyph glyph-name="Korea1.9190" unicode="&#x21e0;" 
 />
    <glyph glyph-name="Korea1.9192" unicode="&#x21e1;" 
 />
    <glyph glyph-name="Korea1.9191" unicode="&#x21e2;" 
 />
    <glyph glyph-name="Korea1.9193" unicode="&#x21e3;" 
 />
    <glyph glyph-name="Korea1.9198" unicode="&#x21e6;" 
 />
    <glyph glyph-name="Korea1.9200" unicode="&#x21e7;" 
 />
    <glyph glyph-name="Korea1.9199" unicode="&#x21e8;" 
 />
    <glyph glyph-name="Korea1.9201" unicode="&#x21e9;" 
 />
    <glyph glyph-name="Korea1.197" unicode="&#x2200;" horiz-adv-x="1863" 
d="M850 -53l-547 1476h154l164 -458h624l168 458h148l-549 -1476h-162zM932 74q49 172 121 366l145 400h-532l143 -400q62 -165 123 -366z" />
    <glyph glyph-name="Korea1.151" unicode="&#x2202;" horiz-adv-x="1056" 
d="M446 -23q-188 1 -289 123t-101 314t129 338q130 146 315 145q121 0 214 -56t134 -130h2q2 25 2 77q0 276 -121 428t-281 152t-278 -84l-47 92q147 110 350 110t355 -192t152 -548t-156 -562q-157 -206 -380 -207zM473 92q131 0 233 139q101 139 125 340q-35 90 -119 151
q-85 60 -207 60t-216 -108t-94 -260t73 -237q74 -85 205 -85z" />
    <glyph glyph-name="Korea1.198" unicode="&#x2203;" horiz-adv-x="1863" 
d="M494 1423h888v-1476h-903v127h760v567h-702v127h702v528h-745v127z" />
    <glyph glyph-name="Korea1.8715" unicode="&#x2206;" 
 />
    <glyph glyph-name="Korea1.152" unicode="&#x2207;" horiz-adv-x="1863" 
d="M932 160l596 956h-1192zM133 1221h1598l-799 -1266z" />
    <glyph glyph-name="Korea1.184" unicode="&#x2208;" horiz-adv-x="1863" 
d="M1628 733v-123h-1263q17 -147 125 -233t315 -86h827v-123h-817q-289 0 -437 141t-148 359t143 350t432 133h827v-123h-827q-205 0 -311 -81t-127 -214h1261z" />
    <glyph glyph-name="Korea1.8749" unicode="&#x2209;" 
 />
    <glyph glyph-name="Korea1.185" unicode="&#x220b;" horiz-adv-x="1863" 
d="M233 610v123h1260q-19 133 -125 214t-311 81h-828v123h828q289 0 432 -133.5t143 -349.5t-148 -358t-437 -142h-818v123h828q207 0 315 86t123 233h-1262z" />
    <glyph glyph-name="Korea1.8750" unicode="&#x220c;" 
 />
    <glyph glyph-name="Korea1.213" unicode="&#x220f;" horiz-adv-x="1304" 
d="M1006 1298v-1351h-144v1351h-420v-1351h-143v1351h-238v125h1182v-125h-237z" />
    <glyph glyph-name="Korea1.212" unicode="&#x2211;" horiz-adv-x="1185" 
d="M170 1423h889v-127h-705l424 -616l-432 -606h727v-127h-903v102l444 629l-444 649v96z" />
    <glyph glyph-name="Korea1.8726" unicode="&#x2213;" 
 />
    <glyph glyph-name="Korea1.178" unicode="&#x221a;" horiz-adv-x="1126" 
d="M1163 1638l-473 -1890h-104l-330 887l-150 -66l-34 84l258 107l264 -737q25 -70 35 -119h2q12 61 26 119l394 1615h112z" />
    <glyph glyph-name="Korea1.180" unicode="&#x221d;" horiz-adv-x="1863" 
d="M616 899q-110 -1 -178 -71t-68 -184t64 -182t182 -69q195 0 324 252q-133 254 -324 254zM1393 260q-229 0 -389 260q-70 -118 -158 -188t-236 -70t-262 102t-114 280t114 282t258 104t236 -73t162 -189q152 262 389 262q114 0 235 -88l-69 -104q-98 66 -166 65
q-103 0 -177 -62t-145 -196q69 -133 143 -195t166 -62t174 44l43 -115q-102 -57 -204 -57z" />
    <glyph glyph-name="Korea1.136" unicode="&#x221e;" horiz-adv-x="1228" 
d="M926 332q-87 0 -146 45l-38 27q-26 19 -50 50t-49 62t-29 37q-48 -61 -68 -85q-110 -136 -264 -136q-118 0 -193 81t-75 205t82 208t207 85q69 1 107 -21t56 -33q20 -11 82 -81t66 -84q6 6 38 46t63 73t93 67t134 33q123 0 198 -80q74 -81 74 -205t-82 -209t-206 -85z
M930 434q78 0 128 55t50 135t-48 134t-110 53q-100 0 -179 -84q-27 -31 -51 -61t-26 -32t-5 -5.5t-5 -5.5q117 -156 182 -179q29 -10 64 -10zM123 622q1 -80 47 -134t110 -54q102 0 191 95q29 32 76 94q-6 8 -32 39.5t-36 45.5t-36 38q-70 66 -146 66t-125 -55t-49 -135z
" />
    <glyph glyph-name="Korea1.8717" unicode="&#x221f;" 
 />
    <glyph glyph-name="Korea1.148" unicode="&#x2220;" horiz-adv-x="1863" 
d="M1556 129v-129h-1249v92l967 1127l104 -86l-868 -1004h1046z" />
    <glyph glyph-name="Korea1.8738" unicode="&#x2222;" 
 />
    <glyph glyph-name="Korea1.8719" unicode="&#x2225;" 
 />
    <glyph glyph-name="Korea1.8720" unicode="&#x2226;" 
 />
    <glyph glyph-name="Korea1.192" unicode="&#x2227;" horiz-adv-x="1863" 
d="M932 1044q-195 -370 -547 -1052l-111 53l603 1165h110l602 -1165l-110 -53z" />
    <glyph glyph-name="Korea1.193" unicode="&#x2228;" horiz-adv-x="1863" 
d="M932 170l547 1055l110 -56l-602 -1163h-110l-603 1163l111 56z" />
    <glyph glyph-name="Korea1.191" unicode="&#x2229;" horiz-adv-x="1863" 
d="M932 1300q223 0 360 -147t138 -438v-817h-132v827q0 229 -99 343t-267 114t-267 -114t-100 -343v-827h-131v817q0 291 137 438q138 147 361 147z" />
    <glyph glyph-name="Korea1.190" unicode="&#x222a;" horiz-adv-x="1863" 
d="M432 1300h131v-827q1 -229 101 -340t266 -111t268 112t102 339v827h132v-817q0 -289 -144 -437t-364 -148t-356 143t-136 432v827z" />
    <glyph glyph-name="Korea1.182" unicode="&#x222b;" horiz-adv-x="620" 
d="M514 1620q51 0 84 -14l-23 -99q-33 8 -57 9q-59 0 -94 -41q-59 -74 -59 -324l22 -981q0 -272 -96 -387q-66 -82 -172 -82q-68 0 -101 20l21 97q47 -10 86 -10t78 40q61 80 61 324l-22 987q0 281 106 389q66 72 166 72z" />
    <glyph glyph-name="Korea1.183" unicode="&#x222c;" horiz-adv-x="1067" 
d="M514 1620q51 0 84 -14l-23 -99q-33 8 -57 9q-59 0 -94 -41q-59 -74 -59 -324l22 -981q0 -272 -96 -387q-66 -82 -172 -82q-68 0 -101 20l21 97q47 -10 86 -10t78 40q61 80 61 324l-22 987q0 281 106 389q66 72 166 72zM961 1620q50 0 83 -14l-22 -99q-33 8 -57 9
q-59 0 -95 -41q-59 -74 -59 -324l23 -981q0 -272 -97 -387q-66 -82 -172 -82q-68 0 -100 20l20 97q47 -10 86 -10t78 40q61 80 62 324l-23 987q0 281 107 389q66 72 166 72z" />
    <glyph glyph-name="Korea1.211" unicode="&#x222e;" horiz-adv-x="1863" 
d="M1161 1368q-45 0 -86 -122t-65 -337q116 -12 188 -91.5t62 -203.5t-92 -202t-197 -95q-70 -546 -279 -546q-125 0 -188 120l90 54q41 -84 104 -84q47 0 89 123t63 335q-108 17 -174 95t-56 196t86 194t181 99q71 555 285 555q122 0 188 -129l-96 -43q-37 82 -103 82z
M977 379q76 19 125 81t57 151t-35 155t-120 82q-8 -106 -12 -238t-15 -231zM881 840q-143 -53 -160 -228q-8 -88 29 -149t106 -82q8 106 12 228t13 231z" />
    <glyph glyph-name="Korea1.137" unicode="&#x2234;" horiz-adv-x="1228" 
d="M1120 246q0 -48 -35 -81.5t-83 -33.5t-82 34t-33.5 81.5t34.5 81.5q35 34 83 34t82 -34t34 -82zM342 246q0 -48 -35 -81.5t-83 -33.5t-82 34t-34 81.5t34 81.5t82 34t83 -34t35 -82zM729 1056q0 -48 -33 -83t-82 -35t-84 35q-34 35 -34 83t34 82q35 34 84 34t82 -34
t33 -82z" />
    <glyph glyph-name="Korea1.181" unicode="&#x2235;" horiz-adv-x="1200" 
d="M100 1034q0 50 34 83.5t82 33.5t83 -34t35 -83.5t-34 -81.5t-83 -32t-83 32t-34 82zM879 1034q0 49 33 83q34 34 82 34t83 -34t35 -83.5t-34 -81.5t-83 -32t-83 32q-33 33 -33 82zM489 226q0 48 34 83t82 35t83 -36t35 -83t-35 -81t-83 -34t-82 34t-34 82z" />
    <glyph glyph-name="Korea1.8321" unicode="&#x2237;" 
 />
    <glyph glyph-name="Korea1.113" unicode="&#x223c;" horiz-adv-x="1863" 
d="M1210 502q-144 0 -290 78t-275 78t-217 -130l-84 56q49 78 136 135t173 57q147 0 290 -78t274 -78t219 130l84 -56q-48 -78 -136 -135t-174 -57z" />
    <glyph glyph-name="Korea1.179" unicode="&#x223d;" horiz-adv-x="1863" 
d="M1323 1030q159 0 267 -114t108 -271t-106 -271t-267 -114q-125 0 -250 90l68 101q84 -63 185 -63t170 74t69 179.5t-68 184t-173 78.5t-181 -68t-150 -207q-101 -199 -199 -277q-44 -34 -114 -62t-147 -28q-147 0 -259 102t-111 280t109 283q109 103 244 103t268 -86
l-65 -102q-100 57 -174 57q-111 1 -179 -71t-68 -184t65.5 -182t179.5 -69q156 0 267 160q38 55 51 81t42 81q158 315 418 315z" />
    <glyph glyph-name="Korea1.8500" unicode="&#x2243;" 
 />
    <glyph glyph-name="Korea1.8499" unicode="&#x2245;" 
 />
    <glyph glyph-name="Korea1.8501" unicode="&#x2248;" 
 />
    <glyph glyph-name="Korea1.8739" unicode="&#x2250;" 
 />
    <glyph glyph-name="Korea1.8723" unicode="&#x2251;" 
 />
    <glyph glyph-name="Korea1.154" unicode="&#x2252;" horiz-adv-x="1228" 
d="M113 418v117h1007v-117h-1007zM113 750v114h1007v-114h-1007zM297 1096q0 51 38 90t91 39t91 -39t38 -90t-38 -90t-91 -39t-91 39t-38 90zM694 183q0 52 39 91t90 39t90 -39t39 -91t-38 -91t-91 -39t-91 39t-38 91z" />
    <glyph glyph-name="Korea1.8722" unicode="&#x2253;" 
 />
    <glyph glyph-name="Korea1.8753" unicode="&#x225a;" 
 />
    <glyph glyph-name="Korea1.133" unicode="&#x2260;" horiz-adv-x="1228" 
d="M152 805v133h571l180 274h123l-180 -274h231v-133h-317l-197 -299h514v-133h-600l-176 -271h-123l176 271h-202v133h288l197 299h-485z" />
    <glyph glyph-name="Korea1.153" unicode="&#x2261;" horiz-adv-x="1228" 
d="M1122 297h-1009v104h1009v-104zM1122 895h-1009v104h1009v-104zM1122 596h-1009v104h1009v-104z" />
    <glyph glyph-name="Korea1.8734" unicode="&#x2262;" 
 />
    <glyph glyph-name="Korea1.134" unicode="&#x2264;" horiz-adv-x="1228" 
d="M1096 340l-963 410v106l963 406v-125l-803 -338l803 -328v-131zM133 215h963v-115h-963v115z" />
    <glyph glyph-name="Korea1.135" unicode="&#x2265;" horiz-adv-x="1228" 
d="M1096 750l-963 -410v131l803 328l-803 338v125l963 -406v-106zM133 215h963v-115h-963v115z" />
    <glyph glyph-name="Korea1.8724" unicode="&#x2266;" 
 />
    <glyph glyph-name="Korea1.8725" unicode="&#x2267;" 
 />
    <glyph glyph-name="Korea1.8745" unicode="&#x226e;" 
 />
    <glyph glyph-name="Korea1.8746" unicode="&#x226f;" 
 />
    <glyph glyph-name="Korea1.8481" unicode="&#x2270;" 
 />
    <glyph glyph-name="Korea1.8482" unicode="&#x2271;" 
 />
    <glyph glyph-name="Korea1.8483" unicode="&#x2272;" 
 />
    <glyph glyph-name="Korea1.8484" unicode="&#x2273;" 
 />
    <glyph glyph-name="Korea1.8489" unicode="&#x2276;" 
 />
    <glyph glyph-name="Korea1.8490" unicode="&#x2277;" 
 />
    <glyph glyph-name="Korea1.8491" unicode="&#x2279;" 
 />
    <glyph glyph-name="Korea1.8475" unicode="&#x227a;" 
 />
    <glyph glyph-name="Korea1.8476" unicode="&#x227b;" 
 />
    <glyph glyph-name="Korea1.8479" unicode="&#x2280;" 
 />
    <glyph glyph-name="Korea1.8480" unicode="&#x2281;" 
 />
    <glyph glyph-name="Korea1.188" unicode="&#x2282;" horiz-adv-x="1863" 
d="M1632 1130v-122h-827q-229 0 -335 -100t-107 -266t107 -268.5t335 -103.5h827v-123h-817q-289 -1 -437 141t-148 359t142 350q144 133 433 133h827z" />
    <glyph glyph-name="Korea1.189" unicode="&#x2283;" horiz-adv-x="1863" 
d="M229 1028v123h828q289 0 432 -133.5t143 -349.5t-148 -358t-437 -142h-818v123h828q227 1 335 103t108 268t-106 266t-337 100h-828z" />
    <glyph glyph-name="Korea1.8748" unicode="&#x2284;" 
 />
    <glyph glyph-name="Korea1.8747" unicode="&#x2285;" 
 />
    <glyph glyph-name="Korea1.186" unicode="&#x2286;" horiz-adv-x="1863" 
d="M1632 1274v-123h-827q-229 0 -335 -93t-107 -253t107 -255t335 -95h827v-123h-817q-291 0 -438 134t-147 345t142 337q144 126 433 126h827zM1628 127v-123h-1323v123h1323z" />
    <glyph glyph-name="Korea1.187" unicode="&#x2287;" horiz-adv-x="1863" 
d="M229 1151v123h828q289 0 432 -126t143 -337t-147 -345t-438 -134h-818v123h828q227 0 335 95t108 255t-106 253t-337 93h-828zM233 4v123h1323v-123h-1323z" />
    <glyph glyph-name="Korea1.8486" unicode="&#x228a;" 
 />
    <glyph glyph-name="Korea1.8488" unicode="&#x228b;" 
 />
    <glyph glyph-name="Korea1.8727" unicode="&#x2295;" 
 />
    <glyph glyph-name="Korea1.8728" unicode="&#x2296;" 
 />
    <glyph glyph-name="Korea1.8729" unicode="&#x2297;" 
 />
    <glyph glyph-name="Korea1.227" unicode="&#x2299;" horiz-adv-x="1863" 
d="M1249 612q0 -134 -92 -225.5t-223 -91.5t-225.5 93.5t-94.5 223.5t94 224t226 94t223.5 -92t91.5 -226zM1651 612q0 296 -212 507.5t-507 211.5t-506 -212t-211 -507.5t211 -505.5t506 -210t507 210t212 506zM934 -186q-330 0 -566 234t-235 564q-1 330 235 564t566 235
t564 -233t234 -566t-234 -565t-564 -233z" />
    <glyph glyph-name="Korea1.8742" unicode="&#x22a3;" 
 />
    <glyph glyph-name="Korea1.8503" unicode="&#x22a4;" 
 />
    <glyph glyph-name="Korea1.149" unicode="&#x22a5;" horiz-adv-x="1863" 
d="M1585 133v-133h-1306v133h585v1043h135v-1043h586z" />
    <glyph glyph-name="Korea1.8751" unicode="&#x22bb;" 
 />
    <glyph glyph-name="Korea1.8752" unicode="&#x22bc;" 
 />
    <glyph glyph-name="Korea1.8477" unicode="&#x22ce;" 
 />
    <glyph glyph-name="Korea1.8478" unicode="&#x22cf;" 
 />
    <glyph glyph-name="Korea1.8492" unicode="&#x22da;" 
 />
    <glyph glyph-name="Korea1.8493" unicode="&#x22db;" 
 />
    <glyph glyph-name="Korea1.8320" unicode="&#x22ee;" 
 />
    <glyph glyph-name="Korea1.8754" unicode="&#x2306;" 
 />
    <glyph glyph-name="Korea1.150" unicode="&#x2312;" horiz-adv-x="1863" 
d="M930 1508q356 0 534 -330h-135q-57 102 -157 167t-238 65t-240 -65t-159 -167h-138q177 330 533 330z" />
    <glyph glyph-name="Korea1.8731" unicode="&#x2314;" 
 />
    <glyph glyph-name="Korea1.733" unicode="&#x2460;" horiz-adv-x="1863" 
d="M1704 628q0 338 -219 558.5t-553 220.5t-553 -221t-219 -558.5t219 -559.5t553 -222t553 222t219 560zM1819 627q0 -383 -252 -636t-635 -253t-635 252t-252 636t252 637t635 253t635 -253t252 -636zM1040 84h-131v917l-258 -151l-63 106l346 205h106v-1077z" />
    <glyph glyph-name="Korea1.734" unicode="&#x2461;" horiz-adv-x="1863" 
d="M1704 628q0 338 -219 558.5t-553 220.5t-553 -221t-219 -558.5t219 -559.5t553 -222t553 222t219 560zM1819 627q0 -383 -252 -636t-635 -253t-635 252t-252 636t252 637t635 253t635 -253t252 -636zM1128 903v12q0 70 -51 110t-139 40q-147 0 -240 -160l-104 68
q119 213 342 213q154 0 241 -74t87 -197v-14q0 -137 -170 -321l-336 -369h545v-119h-711v113l401 448q135 152 135 250z" />
    <glyph glyph-name="Korea1.735" unicode="&#x2462;" horiz-adv-x="1863" 
d="M1704 628q0 338 -219 558.5t-553 220.5t-553 -221t-219 -558.5t219 -559.5t553 -222t553 222t219 560zM1819 627q0 -383 -252 -636t-635 -253t-635 252t-252 636t252 637t635 253t635 -253t252 -636zM928 1186q147 0 235 -74t88 -194v-15q0 -180 -174 -244
q105 -20 163 -87t58 -160v-23q0 -131 -93 -222t-283 -91t-342 119l67 108q143 -104 269 -104t187 54q60 54 60 134v19q0 190 -231 190h-129v117h127q94 0 140 55t46 135v12q0 70 -52 110t-136 40q-135 0 -215 -113l-99 72q109 162 314 162z" />
    <glyph glyph-name="Korea1.736" unicode="&#x2463;" horiz-adv-x="1863" 
d="M1704 628q0 338 -219 558.5t-553 220.5t-553 -221t-219 -558.5t219 -559.5t553 -222t553 222t219 560zM1819 627q0 -383 -252 -636t-635 -253t-635 252t-252 636t252 637t635 253t635 -253t252 -636zM1018 780h133v-334h156v-116h-156v-234h-133v234h-537v106l510 738
h150l-504 -728h381v334z" />
    <glyph glyph-name="Korea1.737" unicode="&#x2464;" horiz-adv-x="1863" 
d="M1704 628q0 338 -219 558.5t-553 220.5t-553 -221t-219 -558.5t219 -559.5t553 -222t553 222t219 560zM1819 627q0 -383 -252 -636t-635 -253t-635 252t-252 636t252 637t635 253t635 -253t252 -636zM1182 397v17q0 225 -226 225q-125 0 -211 -86h-110l35 602h575v-117
h-452l-17 -354q84 70 226 70t228 -96t85 -240v-21q0 -135 -92 -235t-290 -100t-351 118l69 109q133 -104 295 -105q116 0 176 64t60 149z" />
    <glyph glyph-name="Korea1.738" unicode="&#x2465;" horiz-adv-x="1863" 
d="M1704 628q0 338 -219 558.5t-553 220.5t-553 -221t-219 -558.5t219 -559.5t553 -222t553 222t219 560zM1819 627q0 -383 -252 -636t-635 -253t-635 252t-252 636t252 637t635 253t635 -253t252 -636zM1296 453v-33q0 -156 -100 -251t-269 -95t-268 112q-98 113 -98 330
v49q1 334 107 476t303 143q153 0 278 -72l-55 -115q-112 63 -234 63t-189 -94t-77 -302q29 51 101 91t161 40q144 -1 242 -95t98 -247zM702 457v-21q0 -108 62 -174t167 -66t167 60t63 170v20q-1 108 -63 168t-162 60t-167 -62t-67 -155z" />
    <glyph glyph-name="Korea1.739" unicode="&#x2466;" horiz-adv-x="1863" 
d="M1704 628q0 338 -219 558.5t-553 220.5t-553 -221t-219 -558.5t219 -559.5t553 -222t553 222t219 560zM1819 627q0 -383 -252 -636t-635 -253t-635 252t-252 636t252 637t635 253t635 -253t252 -636zM580 1020v117h741v-103l-430 -975h-150l430 961h-591z" />
    <glyph glyph-name="Korea1.740" unicode="&#x2467;" horiz-adv-x="1863" 
d="M1704 628q0 338 -219 558.5t-553 220.5t-553 -221t-219 -558.5t219 -559.5t553 -222t553 222t219 560zM1819 627q0 -383 -252 -636t-635 -253t-635 252t-252 636t252 637t635 253t635 -253t252 -636zM931 688q83 0 136 51t53 133v17q0 78 -52 123t-138 45t-138 -45
t-51 -123v-17q-1 -82 53 -133t137 -51zM713 367q-1 -81 59 -131t160 -50t158 50t59 131v16q0 88 -60 138q-61 50 -157 50t-158 -49t-61 -139v-16zM608 877v22q0 119 87 198t235 79t236 -79t89 -198v-22q0 -164 -157 -242q84 -25 137 -93t53 -157v-25q0 -130 -97 -212
t-260 -82t-261 82t-97 212v25q1 86 55 156t136 94q-74 35 -115 101t-41 141z" />
    <glyph glyph-name="Korea1.741" unicode="&#x2468;" horiz-adv-x="1863" 
d="M1704 628q0 338 -219 558.5t-553 220.5t-553 -221t-219 -558.5t219 -559.5t553 -222t553 222t219 560zM1819 627q0 -383 -252 -636t-635 -253t-635 252t-252 636t252 637t635 253t635 -253t252 -636zM922 457q-145 0 -243 93q-97 93 -97 247v34q0 155 101 253t268 98
t267 -112t99 -327v-51q0 -342 -99 -481t-311 -139q-151 -1 -276 73l53 117q110 -66 236 -66t192 92t70 300q-27 -51 -99 -91t-161 -40zM1176 795v22q0 111 -62 177t-166 66t-168 -62t-63 -171v-22q0 -106 64 -168q65 -61 164 -61t165 64t66 155z" />
    <glyph glyph-name="Korea1.742" unicode="&#x2469;" horiz-adv-x="1863" 
d="M1704 628q0 338 -219 558.5t-553 220.5t-553 -221t-219 -558.5t219 -559.5t553 -222t553 222t219 560zM1819 627q0 -383 -252 -636t-635 -253t-635 252t-252 636t252 637t635 253t635 -253t252 -636zM741 84h-127v926l-237 -150l-64 98l326 203h102v-1077zM1458 707v-166
q0 -473 -290 -473t-289 473v166q0 227 74 349q75 122 216 122q289 0 289 -471zM1323 539v170q0 188 -39 267t-115 79q-154 0 -153 -346v-170q0 -346 153 -346q76 0 115 78t39 268z" />
    <glyph glyph-name="Korea1.743" unicode="&#x246a;" horiz-adv-x="1863" 
d="M1704 628q0 338 -219 558.5t-553 220.5t-553 -221t-219 -558.5t219 -559.5t553 -222t553 222t219 560zM1819 627q0 -383 -252 -636t-635 -253t-635 252t-252 636t252 637t635 253t635 -253t252 -636zM795 84h-127v920l-217 -144l-64 98l305 203h103v-1077zM1331 84h-127
v920l-217 -144l-63 98l305 203h102v-1077z" />
    <glyph glyph-name="Korea1.744" unicode="&#x246b;" horiz-adv-x="1863" 
d="M1704 628q0 338 -219 558.5t-553 220.5t-553 -221t-219 -558.5t219 -559.5t553 -222t553 222t219 560zM1819 627q0 -383 -252 -636t-635 -253t-635 252t-252 636t252 637t635 253t635 -253t252 -636zM1274 895v12q0 61 -35 105t-105 44t-118 -30q-48 -31 -88 -113
l-105 68q98 197 299 197q133 0 210 -78t77 -193v-14q0 -147 -133 -322l-281 -368h453v-119h-610v113l342 448q94 123 94 250zM721 84h-127v920l-217 -144l-64 98l305 203h103v-1077z" />
    <glyph glyph-name="Korea1.745" unicode="&#x246c;" horiz-adv-x="1863" 
d="M1704 628q0 338 -219 558.5t-553 220.5t-553 -221t-219 -558.5t219 -559.5t553 -222t553 222t219 560zM1819 627q0 -383 -252 -636t-635 -253t-635 252t-252 636t252 637t635 253t635 -253t252 -636zM1124 1178q144 0 222 -75t77 -194v-14q0 -180 -174 -244
q105 -20 163 -87t58 -161v-22q0 -131 -88 -222t-262 -91t-315 118l67 109q128 -105 240 -105t168 54t55 135v18q0 190 -219 191h-100v117h98q94 0 134 54t40 136v12q0 150 -164 150q-106 0 -186 -113l-98 72q109 162 284 162zM721 84h-127v920l-217 -144l-64 98l305 203h103
v-1077z" />
    <glyph glyph-name="Korea1.746" unicode="&#x246d;" horiz-adv-x="1863" 
d="M1704 628q0 338 -219 558.5t-553 220.5t-553 -221t-219 -558.5t219 -559.5t553 -222t553 222t219 560zM1819 627q0 -383 -252 -636t-635 -253t-635 252t-252 636t252 637t635 253t635 -253t252 -636zM1245 768h129v-334h150v-117h-150v-233h-129v233h-428v107l367 737
h145l-360 -727h276v334zM721 84h-127v920l-217 -144l-64 98l305 203h103v-1077z" />
    <glyph glyph-name="Korea1.747" unicode="&#x246e;" horiz-adv-x="1863" 
d="M1704 628q0 338 -219 558.5t-553 220.5t-553 -221t-219 -558.5t219 -559.5t553 -222t553 222t219 560zM1819 627q0 -383 -252 -636t-635 -253t-635 252t-252 636t252 637t635 253t635 -253t252 -636zM721 84h-127v920l-217 -144l-64 98l305 203h103v-1077zM1339 401v17
q0 113 -43 168t-143 55t-174 -88h-107l35 602h494v-115h-375l-16 -356q74 70 174 70q135 0 211 -88t75 -244v-21q0 -137 -82 -238t-252 -101t-317 118l70 107q68 -59 122 -82t139 -23t137 64t52 155z" />
    <glyph glyph-name="Korea1.8791" unicode="&#x246f;" 
 />
    <glyph glyph-name="Korea1.8792" unicode="&#x2470;" 
 />
    <glyph glyph-name="Korea1.8793" unicode="&#x2471;" 
 />
    <glyph glyph-name="Korea1.8794" unicode="&#x2472;" 
 />
    <glyph glyph-name="Korea1.8795" unicode="&#x2473;" 
 />
    <glyph glyph-name="Korea1.827" unicode="&#x2474;" horiz-adv-x="1863" 
d="M188 586q0 -412 218 -733h-125q-229 301 -230 743v74q1 426 230 731h125q-217 -319 -218 -721v-94zM1812 670v-74q0 -442 -229 -743h-125q217 322 217 733v94q0 402 -217 721h125q229 -305 229 -731zM1096 31h-140v1013l-278 -167l-66 110l373 225h111v-1181z" />
    <glyph glyph-name="Korea1.828" unicode="&#x2475;" horiz-adv-x="1863" 
d="M188 586q0 -412 218 -733h-125q-229 301 -230 743v74q1 426 230 731h125q-217 -319 -218 -721v-94zM1812 670v-74q0 -442 -229 -743h-125q217 322 217 733v94q0 402 -217 721h125q229 -305 229 -731zM1163 934q0 78 -56 124t-157 46q-168 0 -266 -174l-106 67
q127 233 368 234q166 0 261 -81t96 -216v-16q1 -86 -47 -166t-142 -187l-369 -411h601v-123h-773v116l441 498q92 101 121 161t28 116v12z" />
    <glyph glyph-name="Korea1.829" unicode="&#x2476;" horiz-adv-x="1863" 
d="M188 586q0 -412 218 -733h-125q-229 301 -230 743v74q1 426 230 731h125q-217 -319 -218 -721v-94zM1812 670v-74q0 -442 -229 -743h-125q217 322 217 733v94q0 402 -217 721h125q229 -305 229 -731zM944 1229q162 0 258 -81t96 -214v-16q0 -197 -194 -269
q117 -20 180 -93t64 -179v-25q0 -142 -100 -242t-310 -100t-373 131l68 111q156 -116 300 -116t211 62t66 152v21q0 115 -73 164q-74 49 -185 49h-139v121h139q102 0 155 63q52 63 52 150v12q0 82 -58 128t-155 46q-151 0 -239 -129l-105 74q119 180 342 180z" />
    <glyph glyph-name="Korea1.830" unicode="&#x2477;" horiz-adv-x="1863" 
d="M188 586q0 -412 218 -733h-125q-229 301 -230 743v74q1 426 230 731h125q-217 -319 -218 -721v-94zM1812 670v-74q0 -442 -229 -743h-125q217 322 217 733v94q0 402 -217 721h125q229 -305 229 -731zM1081 776h138v-366h170v-121h-170v-258h-138v258h-589v112l563 811
h155l-559 -802h430v366z" />
    <glyph glyph-name="Korea1.831" unicode="&#x2478;" horiz-adv-x="1863" 
d="M188 586q0 -412 218 -733h-125q-229 301 -230 743v74q1 426 230 731h125q-217 -319 -218 -721v-94zM1812 670v-74q0 -442 -229 -743h-125q217 322 217 733v94q0 402 -217 721h125q229 -305 229 -731zM1364 397v-24q0 -147 -99 -256t-315 -109t-383 131l70 113
q145 -117 324 -117q133 0 199 71t67 165v20q0 254 -252 254q-133 0 -232 -94h-116l39 657h622v-123h-500l-16 -399q88 78 247 78t252 -104t93 -263z" />
    <glyph glyph-name="Korea1.832" unicode="&#x2479;" horiz-adv-x="1863" 
d="M188 586q0 -412 218 -733h-125q-229 301 -230 743v74q1 426 230 731h125q-217 -319 -218 -721v-94zM1812 670v-74q0 -442 -229 -743h-125q217 322 217 733v94q0 402 -217 721h125q229 -305 229 -731zM993 1100q-281 0 -301 -455q33 59 111 105t180 45q160 -1 266 -101
t107 -270v-37q0 -171 -111 -275t-291 -104t-289 124q-108 124 -108 360v49q0 369 115 527t329 159q163 0 304 -82l-58 -115q-125 70 -254 70zM700 428v-20q0 -125 71 -200t189 -75t188 69t71 191v23q0 122 -73.5 190t-181.5 68t-186 -71t-78 -175z" />
    <glyph glyph-name="Korea1.833" unicode="&#x247a;" horiz-adv-x="1863" 
d="M188 586q0 -412 218 -733h-125q-229 301 -230 743v74q1 426 230 731h125q-217 -319 -218 -721v-94zM1812 670v-74q0 -442 -229 -743h-125q217 322 217 733v94q0 402 -217 721h125q229 -305 229 -731zM563 1069v123h805v-107l-473 -1075h-154l476 1059h-654z" />
    <glyph glyph-name="Korea1.834" unicode="&#x247b;" horiz-adv-x="1863" 
d="M188 586q0 -412 218 -733h-125q-229 301 -230 743v74q1 426 230 731h125q-217 -319 -218 -721v-94zM1812 670v-74q0 -442 -229 -743h-125q217 322 217 733v94q0 402 -217 721h125q229 -305 229 -731zM723 915v-18q-1 -91 59 -151t154 -60t155 59q60 59 60 152v18
q0 85 -59 137q-60 52 -156 52t-155 -51q-58 -52 -58 -138zM690 354v-20q0 -88 68 -144t180 -56t178 55.5t66 144.5v20q0 98 -68 156t-176 58t-178 -58t-70 -156zM549 330v28q0 96 59 171t152 102q-174 84 -174 268v25q0 129 96 216t253 87t255 -87t98 -216v-25
q0 -86 -46 -157t-130 -111q94 -27 154 -102t59 -171v-28q-1 -142 -107 -232t-282 -90t-282 89q-105 90 -105 233z" />
    <glyph glyph-name="Korea1.835" unicode="&#x247c;" horiz-adv-x="1863" 
d="M188 586q0 -412 218 -733h-125q-229 301 -230 743v74q1 426 230 731h125q-217 -319 -218 -721v-94zM1812 670v-74q0 -442 -229 -743h-125q217 322 217 733v94q0 402 -217 721h125q229 -305 229 -731zM922 135q142 0 214 109t76 340q-30 -60 -108 -106t-182 -46
q-158 0 -266 102t-107 269v39q1 170 111 278t290 108t290 -124.5t110 -360.5v-53q0 -378 -108 -530t-339 -152q-160 0 -301 82l55 117q123 -72 265 -72zM1204 801v22q0 125 -70 201q-72 76 -188 76t-188 -71t-72 -193v-23q0 -121 75 -191t182 -70t184 72.5t77 176.5z" />
    <glyph glyph-name="Korea1.836" unicode="&#x247d;" horiz-adv-x="1863" 
d="M188 586q0 -412 218 -733h-125q-229 301 -230 743v74q1 426 230 731h125q-217 -319 -218 -721v-94zM1812 670v-74q0 -442 -229 -743h-125q217 322 217 733v94q0 402 -217 721h125q229 -305 229 -731zM729 31h-133v1007l-213 -155l-68 100l308 229h106v-1181zM1479 528
q1 -262 -69 -390t-236 -128t-236 129t-70 389v185q0 256 72 386t235 130t233 -129t71 -387v-185zM1339 713q-1 213 -39 300t-124 87t-126 -88t-40 -299v-187q0 -211 40 -300t126 -89t124 87t39 302v187z" />
    <glyph glyph-name="Korea1.837" unicode="&#x247e;" horiz-adv-x="1863" 
d="M188 586q0 -412 218 -733h-125q-229 301 -230 743v74q1 426 230 731h125q-217 -319 -218 -721v-94zM1812 670v-74q0 -442 -229 -743h-125q217 322 217 733v94q0 402 -217 721h125q229 -305 229 -731zM786 31h-133v1016l-233 -164l-68 100l328 229h106v-1181zM1368 31
h-133v1016l-234 -164l-67 100l328 229h106v-1181z" />
    <glyph glyph-name="Korea1.838" unicode="&#x247f;" horiz-adv-x="1863" 
d="M188 586q0 -412 218 -733h-125q-229 301 -230 743v74q1 426 230 731h125q-217 -319 -218 -721v-94zM1812 670v-74q0 -442 -229 -743h-125q217 322 217 733v94q0 402 -217 721h125q229 -305 229 -731zM729 31h-133v1007l-213 -155l-68 100l308 229h106v-1181zM1343 932v12
q0 76 -46 118t-123 42q-135 0 -226 -174l-106 67q117 233 329 234q141 0 227 -82t85 -205v-16q0 -92 -34 -168t-114 -185l-313 -423h481v-121h-645v114l377 510q68 93 88 149t20 128z" />
    <glyph glyph-name="Korea1.839" unicode="&#x2480;" horiz-adv-x="1863" 
d="M188 586q0 -412 218 -733h-125q-229 301 -230 743v74q1 426 230 731h125q-217 -319 -218 -721v-94zM1812 670v-74q0 -442 -229 -743h-125q217 322 217 733v94q0 402 -217 721h125q229 -305 229 -731zM729 31h-133v1007l-213 -155l-68 100l308 229h106v-1181zM1147 1229
q143 0 221 -80t78 -215v-16q0 -205 -174 -269q223 -37 223 -274v-23q0 -146 -80 -244t-260 -98t-332 131l72 107q113 -110 238 -110t176 60t51 152v19q0 215 -227 215h-119v121h119q176 0 176 213v12q0 176 -162 176q-112 0 -186 -123l-105 72q102 174 291 174z" />
    <glyph glyph-name="Korea1.840" unicode="&#x2481;" horiz-adv-x="1863" 
d="M188 586q0 -412 218 -733h-125q-229 301 -230 743v74q1 426 230 731h125q-217 -319 -218 -721v-94zM1812 670v-74q0 -442 -229 -743h-125q217 322 217 733v94q0 402 -217 721h125q229 -305 229 -731zM729 31h-133v1007l-213 -155l-68 100l308 229h106v-1181zM1266 776
h135v-370h147v-117h-147v-258h-135v258h-455v108l410 815h137l-406 -806h314v370z" />
    <glyph glyph-name="Korea1.841" unicode="&#x2482;" horiz-adv-x="1863" 
d="M188 586q0 -412 218 -733h-125q-229 301 -230 743v74q1 426 230 731h125q-217 -319 -218 -721v-94zM1812 670v-74q0 -442 -229 -743h-125q217 322 217 733v94q0 402 -217 721h125q229 -305 229 -731zM729 31h-133v1007l-213 -155l-68 100l308 229h106v-1181zM1495 403
v-18q0 -177 -85 -277t-260 -100t-319 133l76 109q117 -117 246 -117q205 0 205 250v14q0 248 -187 248q-115 0 -172 -94h-116l39 657h501v-121h-381l-18 -401q68 78 196 78t202 -100t73 -261z" />
    <glyph glyph-name="Korea1.9042" unicode="&#x2483;" 
 />
    <glyph glyph-name="Korea1.9043" unicode="&#x2484;" 
 />
    <glyph glyph-name="Korea1.9044" unicode="&#x2485;" 
 />
    <glyph glyph-name="Korea1.9045" unicode="&#x2486;" 
 />
    <glyph glyph-name="Korea1.9046" unicode="&#x2487;" 
 />
    <glyph glyph-name="Korea1.801" unicode="&#x249c;" horiz-adv-x="1863" 
d="M858 160q-120 0 -202 70q-81 70 -81 190v39q0 119 83 189t245 69h244v69q0 193 -203 193q-131 0 -264 -92l-70 104q168 113 329 113t253 -78t92 -213v-639h-135v111q-29 -47 -100 -86t-191 -39zM188 586q0 -412 218 -733h-125q-229 301 -230 743v74q1 426 230 731h125
q-217 -319 -218 -721v-94zM1812 670v-74q0 -442 -229 -743h-125q217 322 217 733v94q0 402 -217 721h125q229 -305 229 -731zM1147 477v123h-242q-193 0 -192 -149v-25q0 -72 51 -109t141 -37t168 56q74 47 74 141z" />
    <glyph glyph-name="Korea1.802" unicode="&#x249d;" horiz-adv-x="1863" 
d="M188 586q0 -412 218 -733h-125q-229 301 -230 743v74q1 426 230 731h125q-217 -319 -218 -721v-94zM1812 670v-74q0 -442 -229 -743h-125q217 322 217 733v94q0 402 -217 721h125q229 -305 229 -731zM750 1298v-475q86 135 261 135t270 -102t95 -287v-161
q0 -184 -100 -288t-270 -104t-256 121h-2v-108h-136v1269h138zM750 592v-248q0 -80 72 -143t181 -63t173 76q63 77 63 214v119q0 135 -62.5 211t-168.5 76t-182 -66t-76 -176z" />
    <glyph glyph-name="Korea1.803" unicode="&#x249e;" horiz-adv-x="1863" 
d="M188 586q0 -412 218 -733h-125q-229 301 -230 743v74q1 426 230 731h125q-217 -319 -218 -721v-94zM1812 670v-74q0 -442 -229 -743h-125q217 322 217 733v94q0 402 -217 721h125q229 -305 229 -731zM956 1102q178 0 306 -96l-66 -107q-106 78 -230 78t-191 -74t-66 -211
v-114q0 -143 69 -220q70 -76 198 -76t245 89l65 -109q-134 -104 -324 -104t-292 110t-103 307v115q-1 196 105 304t284 108z" />
    <glyph glyph-name="Korea1.804" unicode="&#x249f;" horiz-adv-x="1863" 
d="M892 18q-180 0 -276 102t-96 288v161q0 179 100 285t270 106t257 -120v460h137v-1269h-135v116q-77 -129 -257 -129zM1147 627q0 79 -73 145q-74 66 -182 66t-171 -77t-64 -212v-119q-1 -139 63 -214.5t174 -75.5t182 62t71 173v252zM188 586q0 -412 218 -733h-125
q-229 301 -230 743v74q1 426 230 731h125q-217 -319 -218 -721v-94zM1812 670v-74q0 -442 -229 -743h-125q217 322 217 733v94q0 402 -217 721h125q229 -305 229 -731z" />
    <glyph glyph-name="Korea1.805" unicode="&#x24a0;" horiz-adv-x="1863" 
d="M188 586q0 -412 218 -733h-125q-229 301 -230 743v74q1 426 230 731h125q-217 -319 -218 -721v-94zM1812 670v-74q0 -442 -229 -743h-125q217 322 217 733v94q0 402 -217 721h125q229 -305 229 -731zM698 715v-21h482v25q0 123 -62 191t-175 68t-179 -71.5t-66 -191.5z
M959 158q-187 0 -293 108t-107 312v108q1 196 105 306t278 110t273 -110t100 -302v-110h-617v-11q0 -137 71 -213t205 -76t261 85l61 -105q-150 -102 -337 -102z" />
    <glyph glyph-name="Korea1.806" unicode="&#x24a1;" horiz-adv-x="1863" 
d="M188 586q0 -412 218 -733h-125q-229 301 -230 743v74q1 426 230 731h125q-217 -319 -218 -721v-94zM1812 670v-74q0 -442 -229 -743h-125q217 322 217 733v94q0 402 -217 721h125q229 -305 229 -731zM1064 1286q110 0 175 -22l-20 -113q-55 16 -121 16t-99 -32
q-31 -33 -30 -119v-103h245v-120h-245v-785h-138v785h-153v120h153v109q-1 264 233 264z" />
    <glyph glyph-name="Korea1.807" unicode="&#x24a2;" horiz-adv-x="1863" 
d="M188 586q0 -412 218 -733h-125q-229 301 -230 743v74q1 426 230 731h125q-217 -319 -218 -721v-94zM1812 670v-74q0 -442 -229 -743h-125q217 322 217 733v94q0 402 -217 721h125q229 -305 229 -731zM1307 1239v-899q1 -190 -101 -288t-286 -98t-308 95l64 109
q104 -78 244 -78q248 0 247 258v119q-74 -127 -253 -127t-275 102t-96 289v143q0 182 100 286t271 104t255 -119v104h138zM1169 686v238q1 80 -73 144t-183 64t-171 -76.5t-62 -211.5v-103q0 -137 63 -214t172 -77t181 62t73 174z" />
    <glyph glyph-name="Korea1.808" unicode="&#x24a3;" horiz-adv-x="1863" 
d="M188 586q0 -412 218 -733h-125q-229 301 -230 743v74q1 426 230 731h125q-217 -319 -218 -721v-94zM1812 670v-74q0 -442 -229 -743h-125q217 322 217 733v94q0 402 -217 721h125q229 -305 229 -731zM1343 8h-139v576q0 229 -215 229q-98 0 -171 -67t-73 -160v-578h-139
v1270h139v-477q84 135 273 135q150 0 238 -84t87 -236v-608z" />
    <glyph glyph-name="Korea1.809" unicode="&#x24a4;" horiz-adv-x="1863" 
d="M188 586q0 -412 218 -733h-125q-229 301 -230 743v74q1 426 230 731h125q-217 -319 -218 -721v-94zM1812 670v-74q0 -442 -229 -743h-125q217 322 217 733v94q0 402 -217 721h125q229 -305 229 -731zM862 920h139v-912h-139v912zM858 1233h148v-152h-148v152z" />
    <glyph glyph-name="Korea1.810" unicode="&#x24a5;" horiz-adv-x="1863" 
d="M188 586q0 -412 218 -733h-125q-229 301 -230 743v74q1 426 230 731h125q-217 -319 -218 -721v-94zM1812 670v-74q0 -442 -229 -743h-125q217 322 217 733v94q0 402 -217 721h125q229 -305 229 -731zM928 1233h147v-152h-147v152zM1069 920v-674q0 -138 -62 -202
t-170 -64t-175 22l22 113q54 -17 120 -17t97 34t31 120v668h137z" />
    <glyph glyph-name="Korea1.811" unicode="&#x24a6;" horiz-adv-x="1863" 
d="M188 586q0 -412 218 -733h-125q-229 301 -230 743v74q1 426 230 731h125q-217 -319 -218 -721v-94zM1812 670v-74q0 -442 -229 -743h-125q217 322 217 733v94q0 402 -217 721h125q229 -305 229 -731zM760 8h-137v1270h137v-780l416 422h180l-363 -357l389 -555h-170
l-315 459l-137 -135v-324z" />
    <glyph glyph-name="Korea1.812" unicode="&#x24a7;" horiz-adv-x="1863" 
d="M188 586q0 -412 218 -733h-125q-229 301 -230 743v74q1 426 230 731h125q-217 -319 -218 -721v-94zM1812 670v-74q0 -442 -229 -743h-125q217 322 217 733v94q0 402 -217 721h125q229 -305 229 -731zM862 1278h139v-1270h-139v1270z" />
    <glyph glyph-name="Korea1.813" unicode="&#x24a8;" horiz-adv-x="1863" 
d="M1516 780v-606h-136v563q0 123 -34 182q-36 59 -124 59t-142 -62t-54 -160v-582h-137v563q0 123 -34 181t-124 59t-143 -61t-53 -158v-584h-136v911h136v-124q71 141 231 141t227 -160q84 160 252 160q271 0 271 -322zM188 586q0 -412 218 -733h-125q-229 301 -230 743
v74q1 426 230 731h125q-217 -319 -218 -721v-94zM1812 670v-74q0 -442 -229 -743h-125q217 322 217 733v94q0 402 -217 721h125q229 -305 229 -731z" />
    <glyph glyph-name="Korea1.814" unicode="&#x24a9;" horiz-adv-x="1863" 
d="M188 586q0 -412 218 -733h-125q-229 301 -230 743v74q1 426 230 731h125q-217 -319 -218 -721v-94zM1812 670v-74q0 -442 -229 -743h-125q217 322 217 733v94q0 402 -217 721h125q229 -305 229 -731zM1321 782v-608h-139v576q0 229 -215 229q-98 0 -171 -67t-73 -160
v-578h-139v911h135v-120q92 137 276 137q150 0 238 -84t88 -236z" />
    <glyph glyph-name="Korea1.815" unicode="&#x24aa;" horiz-adv-x="1863" 
d="M188 586q0 -412 218 -733h-125q-229 301 -230 743v74q1 426 230 731h125q-217 -319 -218 -721v-94zM1812 670v-74q0 -442 -229 -743h-125q217 322 217 733v94q0 402 -217 721h125q229 -305 229 -731zM933 1102q185 0 291 -110t105 -306v-113q-1 -197 -105 -307t-290 -109
t-292 110q-105 110 -105 306v113q-1 196 105 306t291 110zM1190 584v92q0 150 -69 226t-189 76t-188 -76q-68 -77 -68 -226v-92q0 -150 68 -227q70 -75 190 -75t188 76t68 226z" />
    <glyph glyph-name="Korea1.816" unicode="&#x24ab;" horiz-adv-x="1863" 
d="M188 586q0 -412 218 -733h-125q-229 301 -230 743v74q1 426 230 731h125q-217 -319 -218 -721v-94zM1812 670v-74q0 -442 -229 -743h-125q217 322 217 733v94q0 402 -217 721h125q229 -305 229 -731zM760 1212v-120q80 138 259 138t274 -104t96 -286v-162
q-1 -184 -101 -288t-267 -104t-259 117v-462h-137v1271h135zM762 862v-248q0 -80 73 -143t181 -63t172 76q63 76 63 214v119q-1 135 -63 211t-168 76t-182 -66t-76 -176z" />
    <glyph glyph-name="Korea1.817" unicode="&#x24ac;" horiz-adv-x="1863" 
d="M188 586q0 -412 218 -733h-125q-229 301 -230 743v74q1 426 230 731h125q-217 -319 -218 -721v-94zM1812 670v-74q0 -442 -229 -743h-125q217 322 217 733v94q0 402 -217 721h125q229 -305 229 -731zM1288 -59h-137v471q-78 -125 -256 -125t-274 102t-97 287v162
q0 180 100 285t270 105t257 -120v104h137v-1271zM1151 897q0 81 -73 145q-74 64 -182 64t-171 -77t-63 -212v-119q0 -138 63 -214t173 -76t182 62t71 173v254z" />
    <glyph glyph-name="Korea1.818" unicode="&#x24ad;" horiz-adv-x="1863" 
d="M918 174h-138v911h135v-153q88 170 267 170q70 -1 125 -19q-31 -85 -43 -137q-43 20 -111 21q-102 0 -169 -76t-66 -193v-524zM188 586q0 -412 218 -733h-125q-229 301 -230 743v74q1 426 230 731h125q-217 -319 -218 -721v-94zM1812 670v-74q0 -442 -229 -743h-125
q217 322 217 733v94q0 402 -217 721h125q229 -305 229 -731z" />
    <glyph glyph-name="Korea1.819" unicode="&#x24ae;" horiz-adv-x="1863" 
d="M188 586q0 -412 218 -733h-125q-229 301 -230 743v74q1 426 230 731h125q-217 -319 -218 -721v-94zM1812 670v-74q0 -442 -229 -743h-125q217 322 217 733v94q0 402 -217 721h125q229 -305 229 -731zM950 281q98 0 153 35q54 36 54 96v16q-1 61 -47 93t-190 60t-220 86
t-75 167v22q0 104 85 175q86 71 262 71t306 -94l-64 -103q-106 74 -251 74q-97 0 -149 -35t-52 -90v-16q0 -55 50 -86t192 -57t218 -87t76 -176v-22q0 -111 -95 -182t-247 -70q-211 0 -358 108l66 109q143 -94 286 -94z" />
    <glyph glyph-name="Korea1.820" unicode="&#x24af;" horiz-adv-x="1863" 
d="M188 586q0 -412 218 -733h-125q-229 301 -230 743v74q1 426 230 731h125q-217 -319 -218 -721v-94zM1812 670v-74q0 -442 -229 -743h-125q217 322 217 733v94q0 402 -217 721h125q229 -305 229 -731zM793 311v537h-154v119h154v231h137v-231h246v-119h-246v-535
q0 -83 30 -115t96 -32t120 18l22 -112q-63 -26 -177 -26t-171 62t-57 203z" />
    <glyph glyph-name="Korea1.821" unicode="&#x24b0;" horiz-adv-x="1863" 
d="M188 586q0 -412 218 -733h-125q-229 301 -230 743v74q1 426 230 731h125q-217 -319 -218 -721v-94zM1812 670v-74q0 -442 -229 -743h-125q217 322 217 733v94q0 402 -217 721h125q229 -305 229 -731zM580 475v608h137v-573q-1 -113 47 -171q48 -59 154 -59t179 66t72 158
v579h140v-911h-135v121q-86 -135 -277 -135q-147 0 -232 82t-85 235z" />
    <glyph glyph-name="Korea1.822" unicode="&#x24b1;" horiz-adv-x="1863" 
d="M188 586q0 -412 218 -733h-125q-229 301 -230 743v74q1 426 230 731h125q-217 -319 -218 -721v-94zM1812 670v-74q0 -442 -229 -743h-125q217 322 217 733v94q0 402 -217 721h125q229 -305 229 -731zM940 307l254 776h145l-319 -909h-168l-324 909h152z" />
    <glyph glyph-name="Korea1.823" unicode="&#x24b2;" horiz-adv-x="1863" 
d="M940 918l-190 -744h-164l-238 909h144l180 -770l196 770h148l203 -770l176 770h135l-232 -909h-159zM188 586q0 -412 218 -733h-125q-229 301 -230 743v74q1 426 230 731h125q-217 -319 -218 -721v-94zM1812 670v-74q0 -442 -229 -743h-125q217 322 217 733v94
q0 402 -217 721h125q229 -305 229 -731z" />
    <glyph glyph-name="Korea1.824" unicode="&#x24b3;" horiz-adv-x="1863" 
d="M188 586q0 -412 218 -733h-125q-229 301 -230 743v74q1 426 230 731h125q-217 -319 -218 -721v-94zM1812 670v-74q0 -442 -229 -743h-125q217 322 217 733v94q0 402 -217 721h125q229 -305 229 -731zM1337 1083l-297 -438l310 -471h-164l-236 383l-241 -383h-156l313 471
l-297 438h162l225 -354l228 354h153z" />
    <glyph glyph-name="Korea1.825" unicode="&#x24b4;" horiz-adv-x="1863" 
d="M188 586q0 -412 218 -733h-125q-229 301 -230 743v74q1 426 230 731h125q-217 -319 -218 -721v-94zM1812 670v-74q0 -442 -229 -743h-125q217 322 217 733v94q0 402 -217 721h125q229 -305 229 -731zM948 467l262 747h144l-473 -1280l-123 43l119 320l-338 917h147z" />
    <glyph glyph-name="Korea1.826" unicode="&#x24b5;" horiz-adv-x="1863" 
d="M188 586q0 -412 218 -733h-125q-229 301 -230 743v74q1 426 230 731h125q-217 -319 -218 -721v-94zM1812 670v-74q0 -442 -229 -743h-125q217 322 217 733v94q0 402 -217 721h125q229 -305 229 -731zM1290 1083v-102l-528 -690h553v-117h-723v102l528 689h-495v118h665z
" />
    <glyph glyph-name="Korea1.8388" unicode="&#x24b6;" 
 />
    <glyph glyph-name="Korea1.8389" unicode="&#x24b7;" 
 />
    <glyph glyph-name="Korea1.8390" unicode="&#x24b8;" 
 />
    <glyph glyph-name="Korea1.8391" unicode="&#x24b9;" 
 />
    <glyph glyph-name="Korea1.8392" unicode="&#x24ba;" 
 />
    <glyph glyph-name="Korea1.8393" unicode="&#x24bb;" 
 />
    <glyph glyph-name="Korea1.8394" unicode="&#x24bc;" 
 />
    <glyph glyph-name="Korea1.8395" unicode="&#x24bd;" 
 />
    <glyph glyph-name="Korea1.8396" unicode="&#x24be;" 
 />
    <glyph glyph-name="Korea1.8397" unicode="&#x24bf;" 
 />
    <glyph glyph-name="Korea1.8398" unicode="&#x24c0;" 
 />
    <glyph glyph-name="Korea1.8399" unicode="&#x24c1;" 
 />
    <glyph glyph-name="Korea1.8400" unicode="&#x24c2;" 
 />
    <glyph glyph-name="Korea1.8401" unicode="&#x24c3;" 
 />
    <glyph glyph-name="Korea1.8402" unicode="&#x24c4;" 
 />
    <glyph glyph-name="Korea1.8403" unicode="&#x24c5;" 
 />
    <glyph glyph-name="Korea1.8404" unicode="&#x24c6;" 
 />
    <glyph glyph-name="Korea1.8405" unicode="&#x24c7;" 
 />
    <glyph glyph-name="Korea1.8406" unicode="&#x24c8;" 
 />
    <glyph glyph-name="Korea1.8407" unicode="&#x24c9;" 
 />
    <glyph glyph-name="Korea1.8408" unicode="&#x24ca;" 
 />
    <glyph glyph-name="Korea1.8409" unicode="&#x24cb;" 
 />
    <glyph glyph-name="Korea1.8410" unicode="&#x24cc;" 
 />
    <glyph glyph-name="Korea1.8411" unicode="&#x24cd;" 
 />
    <glyph glyph-name="Korea1.8412" unicode="&#x24ce;" 
 />
    <glyph glyph-name="Korea1.8413" unicode="&#x24cf;" 
 />
    <glyph glyph-name="Korea1.707" unicode="&#x24d0;" horiz-adv-x="1863" 
d="M1704 628q0 338 -219 558.5t-553 220.5t-553 -221t-219 -558.5t219 -559.5t553 -222t553 222t219 560zM1819 627q0 -383 -252 -636t-635 -253t-635 252t-252 636t252 637t635 253t635 -253t252 -636zM594 442v39q0 111 76 174t225 64h219v57q0 172 -178 172
q-119 0 -244 -84l-67 103q156 104 304 104t234 -72t86 -196v-586h-131l-2 102q-60 -114 -266 -114q-108 0 -182 63t-74 174zM1114 506v98h-215q-172 0 -172 -131v-22q0 -63 44 -97t127 -33t150 49q66 48 66 136z" />
    <glyph glyph-name="Korea1.708" unicode="&#x24d1;" horiz-adv-x="1863" 
d="M1704 628q0 338 -219 558.5t-553 220.5t-553 -221t-219 -558.5t219 -559.5t553 -222t553 222t219 560zM1819 627q0 -383 -252 -636t-635 -253t-635 252t-252 636t252 637t635 253t635 -253t252 -636zM764 168v-98h-133v1161h135v-428q78 119 239 119t247 -94t85 -263
v-149q1 -166 -91 -262t-248 -96t-232 110h-2zM1202 436v107q0 123 -55 191t-151 68t-163 -60t-67 -158v-222q0 -72 66 -129t162 -57t152 68t56 192z" />
    <glyph glyph-name="Korea1.709" unicode="&#x24d2;" horiz-adv-x="1863" 
d="M1704 628q0 338 -219 558.5t-553 220.5t-553 -221t-219 -558.5t219 -559.5t553 -222t553 222t219 560zM1819 627q0 -383 -252 -636t-635 -253t-635 252t-252 636t252 637t635 253t635 -253t252 -636zM723 575q0 -262 238 -262q116 0 223 78l63 -104q-117 -97 -295 -97
t-273 102t-95 281v105q0 178 97 278t262 100t284 -89l-66 -103q-95 70 -205 70t-172 -65t-61 -187v-107z" />
    <glyph glyph-name="Korea1.710" unicode="&#x24d3;" horiz-adv-x="1863" 
d="M1704 628q0 338 -219 558.5t-553 220.5t-553 -221t-219 -558.5t219 -559.5t553 -222t553 222t219 560zM1819 627q0 -383 -252 -636t-635 -253t-635 252t-252 636t252 637t635 253t635 -253t252 -636zM1114 86v104h-2q-70 -116 -235 -116t-251 93t-87 263v148
q0 168 91 264q92 96 250 96t230 -109v418h135v-1161h-131zM674 559v-106q0 -121 56 -191t152 -70t162 58t66 156v227q0 72 -66 129t-162 56.5t-152 -68.5t-56 -191z" />
    <glyph glyph-name="Korea1.711" unicode="&#x24d4;" horiz-adv-x="1863" 
d="M1704 628q0 338 -219 558.5t-553 220.5t-553 -221t-219 -558.5t219 -559.5t553 -222t553 222t219 560zM1819 627q0 -383 -252 -636t-635 -253t-635 252t-252 636t252 637t635 253t635 -253t252 -636zM715 692h432v23q1 105 -55 167t-156 62t-161 -64q-60 -65 -60 -169
v-19zM948 197q-172 0 -270 97t-98 288v98q0 182 97 282t258 100t253 -99.5t92 -278.5v-104h-565v-9q0 -123 63 -191t186 -68t238 81l58 -104q-140 -92 -312 -92z" />
    <glyph glyph-name="Korea1.712" unicode="&#x24d5;" horiz-adv-x="1863" 
d="M1704 628q0 338 -219 558.5t-553 220.5t-553 -221t-219 -558.5t219 -559.5t553 -222t553 222t219 560zM1819 627q0 -383 -252 -636t-635 -253t-635 252t-252 636t252 637t635 253t635 -253t252 -636zM817 37v713h-139v116h139v99q0 244 236 243q86 0 145 -22l-20 -111
q-50 17 -110 17t-88 -28t-28 -106v-92h224v-116h-224v-713h-135z" />
    <glyph glyph-name="Korea1.713" unicode="&#x24d6;" horiz-adv-x="1863" 
d="M1819 627q0 -383 -252 -636t-635 -253t-635 252t-252 636t252 637t635 253t635 -253t252 -636zM1704 628q0 338 -219 558.5t-553 220.5t-553 -221t-219 -558.5t219 -559.5t553 -222t553 222t219 560zM1137 354v105q-66 -113 -231 -113t-252 93t-87 263v132q0 168 91 264
t250 96t231 -109v93h135v-824q0 -174 -93 -264t-267 -90t-283 90l61 105q100 -70 221 -70q224 0 224 229zM700 815v-92q0 -121 56 -189t154 -68t163.5 56.5t65.5 155.5v211q0 70 -67.5 127.5t-163.5 57.5t-152 -68t-56 -191z" />
    <glyph glyph-name="Korea1.714" unicode="&#x24d7;" horiz-adv-x="1863" 
d="M1704 628q0 338 -219 558.5t-553 220.5t-553 -221t-219 -558.5t219 -559.5t553 -222t553 222t219 560zM1819 627q0 -383 -252 -636t-635 -253t-635 252t-252 636t252 637t635 253t635 -253t252 -636zM1309 616v-557h-135v525q0 207 -191 207q-88 -1 -155 -59t-66 -146
v-527h-135v1162h135v-430q82 120 252 120q131 -1 213 -77t82 -218z" />
    <glyph glyph-name="Korea1.715" unicode="&#x24d8;" horiz-adv-x="1863" 
d="M1704 628q0 338 -219 558.5t-553 220.5t-553 -221t-219 -558.5t219 -559.5t553 -222t553 222t219 560zM1819 627q0 -383 -252 -636t-635 -253t-635 252t-252 636t252 637t635 253t635 -253t252 -636zM860 57v836h135v-836h-135zM854 1038v150h145v-150h-145z" />
    <glyph glyph-name="Korea1.716" unicode="&#x24d9;" horiz-adv-x="1863" 
d="M1819 627q0 -383 -252 -636t-635 -253t-635 252t-252 636t252 637t635 253t635 -253t252 -636zM1704 628q0 338 -219 558.5t-553 220.5t-553 -221t-219 -558.5t219 -559.5t553 -222t553 222t219 560zM1053 913v-684q0 -246 -236 -245q-86 0 -145 22l20 111
q52 -17 110 -17t87 29t29 107v677h135zM913 1059v149h144v-149h-144z" />
    <glyph glyph-name="Korea1.717" unicode="&#x24da;" horiz-adv-x="1863" 
d="M1704 628q0 338 -219 558.5t-553 220.5t-553 -221t-219 -558.5t219 -559.5t553 -222t553 222t219 560zM1819 627q0 -383 -252 -636t-635 -253t-635 252t-252 636t252 637t635 253t635 -253t252 -636zM788 63h-135v1162h135v-707l373 383h174l-331 -332l354 -506h-168
l-281 412l-121 -121v-291z" />
    <glyph glyph-name="Korea1.718" unicode="&#x24db;" horiz-adv-x="1863" 
d="M1704 628q0 338 -219 558.5t-553 220.5t-553 -221t-219 -558.5t219 -559.5t553 -222t553 222t219 560zM1819 627q0 -383 -252 -636t-635 -253t-635 252t-252 636t252 637t635 253t635 -253t252 -636zM864 47v1161h135v-1161h-135z" />
    <glyph glyph-name="Korea1.719" unicode="&#x24dc;" horiz-adv-x="1863" 
d="M1704 628q0 338 -219 558.5t-553 220.5t-553 -221t-219 -558.5t219 -559.5t553 -222t553 222t219 560zM1819 627q0 -383 -252 -636t-635 -253t-635 252t-252 636t252 637t635 253t635 -253t252 -636zM1245 1049q131 0 199 -78t67 -221v-553h-135v512q0 109 -37 163
t-119 54t-138 -56t-56 -145v-528h-135v512q0 217 -158 217q-80 0 -137 -54t-57 -141v-534h-136v835h136v-112q63 129 226 129t228 -144q90 144 252 144z" />
    <glyph glyph-name="Korea1.720" unicode="&#x24dd;" horiz-adv-x="1863" 
d="M1704 628q0 338 -219 558.5t-553 220.5t-553 -221t-219 -558.5t219 -559.5t553 -222t553 222t219 560zM1819 627q0 -383 -252 -636t-635 -253t-635 252t-252 636t252 637t635 253t635 -253t252 -636zM999 1049q131 0 213 -77t82 -218v-557h-135v524q0 207 -190 207
q-88 0 -155 -58t-66 -147v-526h-136v835h133v-108q82 125 254 125z" />
    <glyph glyph-name="Korea1.721" unicode="&#x24de;" horiz-adv-x="1863" 
d="M1704 628q0 338 -219 558.5t-553 220.5t-553 -221t-219 -558.5t219 -559.5t553 -222t553 222t219 560zM1819 627q0 -383 -252 -636t-635 -253t-635 252t-252 636t252 637t635 253t635 -253t252 -636zM1300 682v-104q0 -178 -97 -280t-269 -102t-270 101.5t-99 280.5v104
q1 180 99 280t270 100t269 -100.5t97 -279.5zM934 315q106 0 169 70q62 70 62 205v80q-1 136 -61 204t-168 68t-170 -69t-61 -203v-80q-1 -135 61 -205t168 -70z" />
    <glyph glyph-name="Korea1.722" unicode="&#x24df;" horiz-adv-x="1863" 
d="M1704 628q0 338 -219 558.5t-553 220.5t-553 -221t-219 -558.5t219 -559.5t553 -222t553 222t219 560zM1819 627q0 -383 -252 -636t-635 -253t-635 252t-252 636t252 637t635 253t635 -253t252 -636zM778 0h-135v1163h133v-106q72 123 237 123t251 -94t86 -263v-149
q0 -170 -91 -264t-243 -95q-68 0 -136 31t-102 76v-422zM1214 694v107q0 123 -55 191t-151 68t-163 -60t-67 -158v-221q0 -71 66 -129t162 -58t152 68t56 192z" />
    <glyph glyph-name="Korea1.723" unicode="&#x24e0;" horiz-adv-x="1863" 
d="M1704 628q0 338 -219 558.5t-553 220.5t-553 -221t-219 -558.5t219 -559.5t553 -222t553 222t219 560zM1819 627q0 -383 -252 -636t-635 -253t-635 252t-252 636t252 637t635 253t635 -253t252 -636zM1094 0v430q-70 -116 -234 -116t-251 94t-87 264v147q0 169 91 265
t250 96t231 -109v92h135v-1163h-135zM866 434q96 0 162 58t66 155v227q0 72 -66 130t-162 57t-152 -69t-57 -191v-107q1 -120 57 -190t152 -70z" />
    <glyph glyph-name="Korea1.724" unicode="&#x24e1;" horiz-adv-x="1863" 
d="M1704 628q0 338 -219 558.5t-553 220.5t-553 -221t-219 -558.5t219 -559.5t553 -222t553 222t219 560zM1819 627q0 -383 -252 -636t-635 -253t-635 252t-252 636t252 637t635 253t635 -253t252 -636zM1116 897q-90 0 -151 -67t-62 -168v-486h-135v836h133v-135
q84 152 246 151q58 0 113 -16l-43 -133q-51 18 -101 18z" />
    <glyph glyph-name="Korea1.725" unicode="&#x24e2;" horiz-adv-x="1863" 
d="M1704 628q0 338 -219 558.5t-553 220.5t-553 -221t-219 -558.5t219 -559.5t553 -222t553 222t219 560zM1819 627q0 -383 -252 -636t-635 -253t-635 252t-252 636t252 637t635 253t635 -253t252 -636zM934 313q86 0 135 32t49 85v12q0 57 -41 83.5t-173 54.5t-202 80
t-69 155v19q1 96 79 162t238 66t285 -87l-61 -101q-98 68 -207 68q-199 0 -199 -108v-17q0 -49 43 -76t173 -51t200 -80t69 -164v-18q0 -100 -87 -167t-226 -66q-201 0 -332 100l62 106q131 -88 264 -88z" />
    <glyph glyph-name="Korea1.726" unicode="&#x24e3;" horiz-adv-x="1863" 
d="M1704 628q0 338 -219 558.5t-553 220.5t-553 -221t-219 -558.5t219 -559.5t553 -222t553 222t219 560zM1819 627q0 -383 -252 -636t-635 -253t-635 252t-252 636t252 637t635 253t635 -253t252 -636zM801 831h-139v117h139v213h135v-213h225v-117h-225v-481
q0 -76 27 -102t87 -26t109 18l21 -111q-66 -25 -168 -25q-212 0 -211 244v483z" />
    <glyph glyph-name="Korea1.727" unicode="&#x24e4;" horiz-adv-x="1863" 
d="M1704 628q0 338 -219 558.5t-553 220.5t-553 -221t-219 -558.5t219 -559.5t553 -222t553 222t219 560zM1819 627q0 -383 -252 -636t-635 -253t-635 252t-252 636t252 637t635 253t635 -253t252 -636zM727 496q0 -207 181 -207q93 0 159 58t66 147v524h135v-836h-133v109
q-80 -121 -250 -121q-133 0 -213 76t-80 217v555h135v-522z" />
    <glyph glyph-name="Korea1.728" unicode="&#x24e5;" horiz-adv-x="1863" 
d="M1704 628q0 338 -219 558.5t-553 220.5t-553 -221t-219 -558.5t219 -559.5t553 -222t553 222t219 560zM1819 627q0 -383 -252 -636t-635 -253t-635 252t-252 636t252 637t635 253t635 -253t252 -636zM1024 168h-168l-291 829h146l231 -700l227 700h144z" />
    <glyph glyph-name="Korea1.729" unicode="&#x24e6;" horiz-adv-x="1863" 
d="M1704 628q0 338 -219 558.5t-553 220.5t-553 -221t-219 -558.5t219 -559.5t553 -222t553 222t219 560zM1819 627q0 -383 -252 -636t-635 -253t-635 252t-252 636t252 637t635 253t635 -253t252 -636zM762 168h-160l-219 829h141l162 -688h2l186 688h140l186 -688h2
l164 688h133l-217 -829h-160l-180 663h-2z" />
    <glyph glyph-name="Korea1.730" unicode="&#x24e7;" horiz-adv-x="1863" 
d="M1704 628q0 338 -219 558.5t-553 220.5t-553 -221t-219 -558.5t219 -559.5t553 -222t553 222t219 560zM1819 627q0 -383 -252 -636t-635 -253t-635 252t-252 636t252 637t635 253t635 -253t252 -636zM1292 1020l-268 -399l281 -431h-164l-207 342l-211 -342h-154l283 431
l-270 399h161l199 -315l199 315h151z" />
    <glyph glyph-name="Korea1.731" unicode="&#x24e8;" horiz-adv-x="1863" 
d="M1704 628q0 338 -219 558.5t-553 220.5t-553 -221t-219 -558.5t219 -559.5t553 -222t553 222t219 560zM1819 627q0 -383 -252 -636t-635 -253t-635 252t-252 636t252 637t635 253t635 -253t252 -636zM575 1137h146l233 -676l236 676h139l-434 -1174l-119 43l109 287z" />
    <glyph glyph-name="Korea1.732" unicode="&#x24e9;" horiz-adv-x="1863" 
d="M1704 628q0 338 -219 558.5t-553 220.5t-553 -221t-219 -558.5t219 -559.5t553 -222t553 222t219 560zM1819 627q0 -383 -252 -636t-635 -253t-635 252t-252 636t252 637t635 253t635 -253t252 -636zM1251 1038v-102l-473 -619h496v-116h-668v100l479 619h-448v118h614z
" />
    <glyph glyph-name="Korea1.8683" unicode="&#x24eb;" 
 />
    <glyph glyph-name="Korea1.8684" unicode="&#x24ec;" 
 />
    <glyph glyph-name="Korea1.8685" unicode="&#x24ed;" 
 />
    <glyph glyph-name="Korea1.8686" unicode="&#x24ee;" 
 />
    <glyph glyph-name="Korea1.8687" unicode="&#x24ef;" 
 />
    <glyph glyph-name="Korea1.8688" unicode="&#x24f0;" 
 />
    <glyph glyph-name="Korea1.8689" unicode="&#x24f1;" 
 />
    <glyph glyph-name="Korea1.8690" unicode="&#x24f2;" 
 />
    <glyph glyph-name="Korea1.8691" unicode="&#x24f3;" 
 />
    <glyph glyph-name="Korea1.8692" unicode="&#x24f4;" 
 />
    <glyph glyph-name="Korea1.519" unicode="&#x2500;" horiz-adv-x="1884" 
d="M1884 645v-59h-1884v59h1884z" />
    <glyph glyph-name="Korea1.530" unicode="&#x2501;" horiz-adv-x="1884" 
d="M1884 666v-111h-1884v111h1884z" />
    <glyph glyph-name="Korea1.520" unicode="&#x2502;" horiz-adv-x="1884" 
d="M973 1638v-2048h-60v2048h60z" />
    <glyph glyph-name="Korea1.531" unicode="&#x2503;" horiz-adv-x="1884" 
d="M997 1638v-2048h-110v2048h110z" />
    <glyph glyph-name="Korea1.521" unicode="&#x250c;" horiz-adv-x="1884" 
d="M1884 645v-59h-911v-996h-60v1055h971z" />
    <glyph glyph-name="Korea1.558" unicode="&#x250d;" horiz-adv-x="1884" 
d="M1884 688v-147h-903v-951h-78v1098h981z" />
    <glyph glyph-name="Korea1.557" unicode="&#x250e;" horiz-adv-x="1884" 
d="M1884 651v-73h-864v-988h-156v1061h1020z" />
    <glyph glyph-name="Korea1.532" unicode="&#x250f;" horiz-adv-x="1884" 
d="M1884 666v-111h-887v-965h-110v1076h997z" />
    <glyph glyph-name="Korea1.522" unicode="&#x2510;" horiz-adv-x="1884" 
d="M973 645v-1055h-60v996h-913v59h973z" />
    <glyph glyph-name="Korea1.552" unicode="&#x2511;" horiz-adv-x="1884" 
d="M981 688v-1098h-78v951h-903v147h981z" />
    <glyph glyph-name="Korea1.551" unicode="&#x2512;" horiz-adv-x="1884" 
d="M1020 651v-1061h-156v988h-864v73h1020z" />
    <glyph glyph-name="Korea1.533" unicode="&#x2513;" horiz-adv-x="1884" 
d="M997 666v-1076h-110v965h-887v111h997z" />
    <glyph glyph-name="Korea1.524" unicode="&#x2514;" horiz-adv-x="1884" 
d="M1884 645v-59h-971v1052h60v-993h911z" />
    <glyph glyph-name="Korea1.556" unicode="&#x2515;" horiz-adv-x="1884" 
d="M1884 688v-147h-981v1097h78v-950h903z" />
    <glyph glyph-name="Korea1.555" unicode="&#x2516;" horiz-adv-x="1884" 
d="M1884 651v-73h-1020v1060h156v-987h864z" />
    <glyph glyph-name="Korea1.535" unicode="&#x2517;" horiz-adv-x="1884" 
d="M1884 666v-111h-997v1083h110v-972h887z" />
    <glyph glyph-name="Korea1.523" unicode="&#x2518;" horiz-adv-x="1884" 
d="M973 1638v-1052h-973v59h913v993h60z" />
    <glyph glyph-name="Korea1.554" unicode="&#x2519;" horiz-adv-x="1884" 
d="M981 1638v-1097h-981v147h903v950h78z" />
    <glyph glyph-name="Korea1.553" unicode="&#x251a;" horiz-adv-x="1884" 
d="M1020 1638v-1060h-1020v73h864v987h156z" />
    <glyph glyph-name="Korea1.534" unicode="&#x251b;" horiz-adv-x="1884" 
d="M997 1638v-1083h-997v111h887v972h110z" />
    <glyph glyph-name="Korea1.525" unicode="&#x251c;" horiz-adv-x="1884" 
d="M1884 645v-59h-911v-996h-60v2048h60v-993h911z" />
    <glyph glyph-name="Korea1.546" unicode="&#x251d;" horiz-adv-x="1884" 
d="M1884 688v-147h-903v-951h-78v2048h78v-950h903z" />
    <glyph glyph-name="Korea1.559" unicode="&#x251e;" horiz-adv-x="1884" 
d="M1884 651v-73h-905l2 -988h-78v1024h-39v1024h156v-987h864z" />
    <glyph glyph-name="Korea1.560" unicode="&#x251f;" horiz-adv-x="1884" 
d="M1884 651v-73h-864v-988h-156v1024h39v1024h78v-987h903z" />
    <glyph glyph-name="Korea1.541" unicode="&#x2520;" horiz-adv-x="1884" 
d="M1884 651v-73h-866v-988h-156v2048h156v-987h866z" />
    <glyph glyph-name="Korea1.561" unicode="&#x2521;" horiz-adv-x="1884" 
d="M1884 688v-147h-903v-951h-78v1024h-39v1024h156v-950h864z" />
    <glyph glyph-name="Korea1.562" unicode="&#x2522;" horiz-adv-x="1884" 
d="M1884 688v-147h-864v-951h-156v1024h39v1024h78v-950h903z" />
    <glyph glyph-name="Korea1.536" unicode="&#x2523;" horiz-adv-x="1884" 
d="M1884 666v-111h-887v-965h-110v2048h110v-972h887z" />
    <glyph glyph-name="Korea1.527" unicode="&#x2524;" horiz-adv-x="1884" 
d="M973 1638v-2048h-60v996h-913v59h913v993h60z" />
    <glyph glyph-name="Korea1.548" unicode="&#x2525;" horiz-adv-x="1884" 
d="M981 1638v-2048h-78v951h-903v147h903v950h78z" />
    <glyph glyph-name="Korea1.563" unicode="&#x2526;" horiz-adv-x="1884" 
d="M1020 1638v-1024h-39v-1024h-78v988h-903v73h864v987h156z" />
    <glyph glyph-name="Korea1.564" unicode="&#x2527;" horiz-adv-x="1884" 
d="M1020 614v-1024h-156v988h-864v73h903v987h78v-1024h39z" />
    <glyph glyph-name="Korea1.543" unicode="&#x2528;" horiz-adv-x="1884" 
d="M1020 1638v-2048h-156v988h-864v73h864v987h156z" />
    <glyph glyph-name="Korea1.565" unicode="&#x2529;" horiz-adv-x="1884" 
d="M1020 1638v-1024h-39v-1024h-78v951h-903v147h864v950h156z" />
    <glyph glyph-name="Korea1.566" unicode="&#x252a;" horiz-adv-x="1884" 
d="M1020 614v-1024h-156v951h-864v147h903v950h78v-1024h39z" />
    <glyph glyph-name="Korea1.538" unicode="&#x252b;" horiz-adv-x="1884" 
d="M997 1638v-2048h-110v965h-887v111h887v972h110z" />
    <glyph glyph-name="Korea1.526" unicode="&#x252c;" horiz-adv-x="1884" 
d="M1884 645v-59h-911v-996h-60v996h-913v59h1884z" />
    <glyph glyph-name="Korea1.567" unicode="&#x252d;" horiz-adv-x="1884" 
d="M1884 651v-73h-903v-988h-78v951h-903v147h942v-37h942z" />
    <glyph glyph-name="Korea1.568" unicode="&#x252e;" horiz-adv-x="1884" 
d="M1884 688v-147h-903v-951h-78v988h-903v73h942v37h942z" />
    <glyph glyph-name="Korea1.542" unicode="&#x252f;" horiz-adv-x="1884" 
d="M1884 688v-147h-903v-951h-78v951h-903v147h1884z" />
    <glyph glyph-name="Korea1.547" unicode="&#x2530;" horiz-adv-x="1884" 
d="M1884 651v-73h-864v-988h-156v988h-864v73h1884z" />
    <glyph glyph-name="Korea1.569" unicode="&#x2531;" horiz-adv-x="1884" 
d="M1884 651v-73h-864v-988h-156v951h-864v147h942v-37h942z" />
    <glyph glyph-name="Korea1.570" unicode="&#x2532;" horiz-adv-x="1884" 
d="M1884 688v-147h-864v-951h-156v988h-864v73h942v37h942z" />
    <glyph glyph-name="Korea1.537" unicode="&#x2533;" horiz-adv-x="1884" 
d="M1884 666v-111h-887v-965h-110v965h-887v111h1884z" />
    <glyph glyph-name="Korea1.528" unicode="&#x2534;" horiz-adv-x="1884" 
d="M1884 645v-59h-1884v59h913v993h60v-993h911z" />
    <glyph glyph-name="Korea1.571" unicode="&#x2535;" horiz-adv-x="1884" 
d="M1884 651v-73h-942v-37h-942v147h903v950h78v-987h903z" />
    <glyph glyph-name="Korea1.572" unicode="&#x2536;" horiz-adv-x="1884" 
d="M1884 688v-147h-942v37h-942v73h903v987h78v-950h903z" />
    <glyph glyph-name="Korea1.544" unicode="&#x2537;" horiz-adv-x="1884" 
d="M1884 688v-147h-1884v147h903v950h78v-950h903z" />
    <glyph glyph-name="Korea1.549" unicode="&#x2538;" horiz-adv-x="1884" 
d="M1884 651v-73h-1884v73h864v987h156v-987h864z" />
    <glyph glyph-name="Korea1.573" unicode="&#x2539;" horiz-adv-x="1884" 
d="M1884 651v-73h-942v-37h-942v147h864v950h156v-987h864z" />
    <glyph glyph-name="Korea1.574" unicode="&#x253a;" horiz-adv-x="1884" 
d="M1884 688v-147h-942v37h-942v73h864v987h156v-950h864z" />
    <glyph glyph-name="Korea1.539" unicode="&#x253b;" horiz-adv-x="1884" 
d="M1884 666v-111h-1884v111h887v972h110v-972h887z" />
    <glyph glyph-name="Korea1.529" unicode="&#x253c;" horiz-adv-x="1884" 
d="M1884 643v-59h-911v-994h-60v994h-913v59h913v995h60v-995h911z" />
    <glyph glyph-name="Korea1.575" unicode="&#x253d;" horiz-adv-x="1884" 
d="M1884 651v-73h-903v-988h-78v951h-903v155h903v942h78v-987h903z" />
    <glyph glyph-name="Korea1.576" unicode="&#x253e;" horiz-adv-x="1884" 
d="M1884 688v-147h-903v-951h-78v988h-903v73h903v987h78v-950h903z" />
    <glyph glyph-name="Korea1.545" unicode="&#x253f;" horiz-adv-x="1884" 
d="M1884 688v-147h-903v-951h-78v951h-903v147h903v950h78v-950h903z" />
    <glyph glyph-name="Korea1.577" unicode="&#x2540;" horiz-adv-x="1884" 
d="M1884 651v-73h-903v-988h-78v988h-903v73h864v987h156v-987h864z" />
    <glyph glyph-name="Korea1.578" unicode="&#x2541;" horiz-adv-x="1884" 
d="M1884 651v-73h-864v-988h-156v988h-864v73h903v987h78v-987h903z" />
    <glyph glyph-name="Korea1.550" unicode="&#x2542;" horiz-adv-x="1884" 
d="M1884 651v-73h-864v-988h-156v988h-864v73h864v987h156v-987h864z" />
    <glyph glyph-name="Korea1.579" unicode="&#x2543;" horiz-adv-x="1884" 
d="M1884 651v-73h-903v-988h-78v951h-903v147h864v950h156v-987h864z" />
    <glyph glyph-name="Korea1.580" unicode="&#x2544;" horiz-adv-x="1884" 
d="M1884 688v-147h-903v-951h-78v988h-903v73h864v987h156v-950h864z" />
    <glyph glyph-name="Korea1.581" unicode="&#x2545;" horiz-adv-x="1884" 
d="M1884 651v-73h-864v-988h-156v951h-864v147h903v950h78v-987h903z" />
    <glyph glyph-name="Korea1.582" unicode="&#x2546;" horiz-adv-x="1884" 
d="M1884 688v-147h-864v-951h-156v988h-864v73h903v987h78v-950h903z" />
    <glyph glyph-name="Korea1.583" unicode="&#x2547;" horiz-adv-x="1884" 
d="M1884 688v-147h-903v-951h-78v951h-903v147h864v950h156v-950h864z" />
    <glyph glyph-name="Korea1.584" unicode="&#x2548;" horiz-adv-x="1884" 
d="M1884 688v-147h-864v-951h-156v951h-864v147h903v950h78v-950h903z" />
    <glyph glyph-name="Korea1.585" unicode="&#x2549;" horiz-adv-x="1884" 
d="M1884 651v-73h-864v-988h-156v951h-864v147h864v950h156v-987h864z" />
    <glyph glyph-name="Korea1.586" unicode="&#x254a;" horiz-adv-x="1884" 
d="M1884 688v-147h-864v-951h-156v988h-864v73h864v987h156v-950h864z" />
    <glyph glyph-name="Korea1.540" unicode="&#x254b;" horiz-adv-x="1884" 
d="M1884 666v-111h-887v-965h-110v965h-887v111h887v972h110v-972h887z" />
    <glyph glyph-name="Korea1.232" unicode="&#x2592;" horiz-adv-x="1863" 
d="M358 90q50 0 50 -52t-50 -52q-24 0 -38 15t-15 38t15 37t38 14zM600 39q0 -23 -15 -38t-37 -15t-37 15t-15 38t15 37t37 14t37 -14t15 -37zM408 231q0 -53 -50 -53q-24 0 -38 16t-14 37t14 35q16 14 38 14t36 -14t14 -35zM600 230q0 -22 -15 -36t-37 -15t-37 15t-15 37
t15 35t37 14t37 -14t15 -36zM739 -14q-23 0 -37 15t-14 38q0 51 51 51q23 0 39 -14t16 -37t-16 -38t-39 -15zM408 422q0 -53 -50 -53q-24 0 -38 15t-15 38t15 38t38 15q50 0 50 -53zM688 231q0 21 14 35t37 14t39 -14t16 -36t-16 -36t-39 -15t-37 15t-14 37zM600 422
q0 -23 -15 -38t-37 -15t-37 15t-15 38t15 38t37 15t37 -15t15 -38zM983 39q1 -23 -13 -38t-36 -15t-38 15q-15 15 -15 38t15 37t36 14q51 0 51 -51zM408 614q0 -20 -14 -35t-37 -15t-37 15t-14 37t15 36t37 14q50 -1 50 -52zM983.5 230q0.5 -22 -13.5 -36t-36 -15t-38 15
t-16 37t15.5 35t37.5 14t36 -14t14.5 -36zM739 369q-23 0 -37 15t-14 38t14 38t37 15t39 -15t16 -38t-16 -38t-39 -15zM600 616q0 -22 -15 -37t-37 -15t-37 15t-15 37t15 36t37 14t37 -14t15 -36zM1178 39q0 -23 -16 -38t-38 -15t-37.5 15t-15.5 38t15.5 37t37.5 14t38 -14
t16 -37zM408 807q0 -53 -50 -53q-24 0 -38 15t-15 38t15 38t38 15q50 0 50 -53zM1178 230q0 -22 -16 -36t-38 -15t-37.5 15t-15.5 37t15.5 35t37.5 14t38 -14t16 -36zM983.5 422q0.5 -23 -13.5 -38t-36 -15t-38 15q-15 15 -15 38t15 38t37 15t36 -15t14.5 -38zM739 564
q-23 0 -37 15t-14 35q0 51 51 52q23 0 39 -14t16 -36t-16 -37t-39 -15zM600 807q0 -23 -15 -38t-37 -15t-37 15t-15 38t15 38t37 15t37 -15t15 -38zM1368 39q0 -23 -14 -38t-37 -15t-37 15t-14 38q0 51 51 51t51 -51zM408 997q0 -21 -14 -35t-37 -14t-37 14t-14 36t14 37
q16 15 38 16q50 -1 50 -54zM1507 -14q-23 0 -37 15t-14 38q0 51 51 51q23 0 39 -14t16 -37t-16 -38t-39 -15zM1368 230q0 -22 -14 -36t-37 -15t-37 15t-14 37t14 35t37 14t37 -14t14 -36zM1178 422q0 -23 -16 -38t-38 -15t-37.5 15t-15.5 38t15.5 38t37.5 15t38 -15t16 -38z
M983 614q1 -20 -13 -35t-36 -15t-38 15t-15 37q0 22 15 36t36 14q51 -1 51 -52zM739 754q-23 0 -37 15t-14 38t14 38t37 15t39 -15t16 -38t-16 -38t-39 -15zM600 998q0 -22 -15 -36t-37 -14t-37 14t-15 36t15 37t37 15t37 -15t15 -37zM358 1243q50 0 50 -52t-50 -52
q-24 0 -38 14t-15 37t15 38t38 15zM1456 231q0 21 14 35t37 14t39 -14t16 -36t-16 -36t-39 -15t-37 15t-14 37zM600 1190q0 -23 -15 -37t-37 -14t-37 14t-15 37t15 38t37 15t37 -15t15 -38zM1368 422q0 -23 -14 -38t-37 -15t-37 15t-14 38t14 38t37 15t37 -15t14 -38z
M1178 616q0 -22 -16 -37t-38 -15t-38 15q-15 15 -15 37t15 36q16 14 38 14t38 -14t16 -36zM983.5 807q0.5 -23 -13.5 -38t-36 -15t-38 15q-15 15 -15 38t15 38t37 15t36 -15t14.5 -38zM739 948q-23 0 -37 14t-14 36t14 37t37 15t39 -15t16 -37t-16 -36t-39 -14zM1507 369
q-23 0 -37 15t-14 38t14 38t37 15t39 -15t16 -38t-16 -38t-39 -15zM739 1139q-51 0 -51 51q0 23 14 38t37 15t39 -15t16 -38t-16 -37t-39 -14zM1368 614q0 -20 -14 -35t-37 -15t-37 15t-14 35q0 51 51 52q51 -1 51 -52zM1178 807q0 -23 -16 -38t-38 -15t-37.5 15t-15.5 38
t15.5 38t37.5 15t38 -15t16 -38zM983.5 998q0.5 -22 -13.5 -36t-36 -14t-38 14t-15 36q0 22 15 37t37 15t36 -15t14.5 -37zM1507 564q-23 0 -37 15t-14 35q0 51 51 52q23 0 39 -14t16 -36t-16 -37t-39 -15zM983 1190q0 -51 -51 -51q-20 0 -36 14q-15 14 -15 37t15 38t37 15
t36 -15t14 -38zM1368 807q0 -23 -14 -38t-37 -15t-37 15t-14 38t14 38t37 15t37 -15t14 -38zM1178 998q0 -22 -16 -36t-38 -14t-37.5 14t-15.5 36t15.5 37t37.5 15t38 -15t16 -37zM1507 754q-23 0 -37 15t-14 38t14 38t37 15t39 -15t16 -38t-16 -38t-39 -15zM1178 1190
q0 -23 -16 -37t-38 -14t-37.5 14t-15.5 37t15.5 38t37.5 15t38 -15t16 -38zM1368 998q0 -22 -14 -36t-37 -14t-37 14t-14 36t14 37t37 15t37 -15t14 -37zM1507 948q-23 0 -37 14t-14 36t14 37t37 15t39 -15t16 -37t-16 -36t-39 -14zM1368 1190q0 -51 -51 -51t-51 51
q0 23 14 38t37 15t37 -15t14 -38zM1507 1139q-51 0 -51 51q0 23 14 38t37 15t39 -15t16 -38t-16 -37t-39 -14zM238 -84h1388v1387h-1388v-1387zM1694 1370v-1522h-1524v1522h1524z" />
    <glyph glyph-name="Korea1.165" unicode="&#x25a0;" horiz-adv-x="1863" 
d="M1636 0h-1409v1407h1409v-1407z" />
    <glyph glyph-name="Korea1.164" unicode="&#x25a1;" horiz-adv-x="1863" 
d="M227 0v1407h1407v-1407h-1407zM1530 1303h-1198v-1197h1198v1197z" />
    <glyph glyph-name="Korea1.229" unicode="&#x25a3;" horiz-adv-x="1863" 
d="M1403 1079v-942h-942v942h942zM248 -74h1368v1366h-1368v-1366zM1694 1370v-1522h-1524v1522h1524z" />
    <glyph glyph-name="Korea1.233" unicode="&#x25a4;" horiz-adv-x="1863" 
d="M238 -84h1388v137h-1388v-137zM238 119h1388v139h-1388v-139zM238 324h1388v147h-1388v-147zM238 537h1388v145h-1388v-145zM238 748h1388v135h-1388v-135zM238 948h1388v150h-1388v-150zM238 1163h1388v140h-1388v-140zM1694 1370v-1522h-1524v1522h1524z" />
    <glyph glyph-name="Korea1.234" unicode="&#x25a5;" horiz-adv-x="1863" 
d="M238 -84h139v1387h-139v-1387zM442 -84h150v1387h-150v-1387zM657 -84h136v1387h-136v-1387zM858 -84h146v1387h-146v-1387zM1069 -84h148v1387h-148v-1387zM1282 -84h139v1387h-139v-1387zM1487 -84h139v1387h-139v-1387zM1694 1370v-1522h-1524v1522h1524z" />
    <glyph glyph-name="Korea1.237" unicode="&#x25a6;" horiz-adv-x="1863" 
d="M238 -84h145v145h-145v-145zM238 123h145v145h-145v-145zM444 -84h146v145h-146v-145zM444 123h146v145h-146v-145zM238 330h145v145h-145v-145zM651 -84h146v145h-146v-145zM651 123h146v145h-146v-145zM444 330h146v145h-146v-145zM238 537h145v145h-145v-145zM858 -84
h146v145h-146v-145zM858 123h146v145h-146v-145zM651 330h146v145h-146v-145zM444 537h146v145h-146v-145zM238 743h145v146h-145v-146zM1065 -84h145v145h-145v-145zM1065 123h145v145h-145v-145zM858 330h146v145h-146v-145zM651 537h146v145h-146v-145zM444 743h146v146
h-146v-146zM238 950h145v146h-145v-146zM1272 -84h145v145h-145v-145zM1272 123h145v145h-145v-145zM1065 330h145v145h-145v-145zM858 537h146v145h-146v-145zM651 743h146v146h-146v-146zM444 950h146v146h-146v-146zM238 1157h145v146h-145v-146zM1481 -84h145v145h-145
v-145zM1272 330h145v145h-145v-145zM1065 537h145v145h-145v-145zM858 743h146v146h-146v-146zM651 950h146v146h-146v-146zM444 1157h146v146h-146v-146zM1481 123h145v145h-145v-145zM1272 537h145v145h-145v-145zM1065 743h145v146h-145v-146zM858 950h146v146h-146v-146
zM651 1157h146v146h-146v-146zM1481 330h145v145h-145v-145zM1272 743h145v146h-145v-146zM1065 950h145v146h-145v-146zM858 1157h146v146h-146v-146zM1481 537h145v145h-145v-145zM1272 950h145v146h-145v-146zM1065 1157h145v146h-145v-146zM1481 743h145v146h-145v-146z
M1272 1157h145v146h-145v-146zM1481 950h145v146h-145v-146zM1481 1157h145v146h-145v-146zM1694 1370v-1522h-1524v1522h1524z" />
    <glyph glyph-name="Korea1.236" unicode="&#x25a7;" horiz-adv-x="1863" 
d="M238 -84h319l-319 320v-320zM655 -84h242l-659 659v-241zM995 -84h242l-999 999v-241zM1335 -84h242l-1339 1339v-241zM289 1303l1337 -1338v242l-1098 1096h-239zM627 1303l999 -998v242l-758 756h-241zM967 1303l659 -658v244l-416 414h-243zM1626 1303h-317l317 -316
v316zM1694 1370v-1522h-1524v1522h1524z" />
    <glyph glyph-name="Korea1.235" unicode="&#x25a8;" horiz-adv-x="1863" 
d="M238 -35l1337 1338h-240l-1097 -1096v-242zM238 305l999 998h-242l-757 -756v-242zM238 645l659 658h-244l-415 -414v-244zM238 1303v-316l317 316h-317zM1626 -84v320l-319 -320h319zM1208 -84l418 418v241l-659 -659h241zM868 -84l758 758v241l-999 -999h241zM528 -84
l1098 1098v241l-1339 -1339h241zM1694 1370v-1522h-1524v1522h1524z" />
    <glyph glyph-name="Korea1.238" unicode="&#x25a9;" horiz-adv-x="1863" 
d="M281 -84h276l-139 139zM238 -27l131 131l-131 132v-263zM606 -35l119 123l-137 137l-121 -121zM418 154l121 120l-131 132l-121 -121zM653 -84h244l-121 121zM238 336l120 119l-120 120v-239zM946 -35l121 121l-121 121l-121 -121zM774 135l123 121l-137 139l-123 -121z
M588 324l121 120l-131 131l-121 -120zM408 504l120 121l-120 120l-121 -120zM238 674l120 121l-120 120v-241zM995 -84h242l-121 121zM1286 -35l121 121l-121 121l-121 -121zM1116 135l121 121l-121 121l-121 -121zM760 494l119 118l-131 133l-121 -120zM578 674l120 121
l-120 120l-121 -120zM408 844l120 121l-120 120l-121 -120zM944 307l123 119l-137 139l-121 -123zM238 1014l120 121l-120 120v-241zM1335 -84h242l-121 121zM1505 86l121 -121v242zM408 1184l120 119h-239zM750 842l118 121l-123 120l-118 -118zM1456 135l121 121l-121 121
l-121 -121zM1286 305l121 121l-123 121l-119 -119zM930 662l119 120l-131 131l-119 -120zM578 1014l120 119l-123 122l-118 -120zM1114 477l123 119l-139 137l-119 -121zM1505 426l121 -121v242zM748 1182l120 121h-241zM1456 475l121 121l-123 121l-121 -121zM1284 645
l121 123l-135 135l-121 -121zM1100 831l121 121l-134 129l-120 -118zM918 1012l122 121l-122 120l-121 -120zM1503 766l123 -123v246zM1090 1180l122 123h-245zM1270 999l121 123l-131 131l-123 -120zM1454 815l123 123l-135 137l-125 -123zM1440 1171l133 132h-264z
M1489 1122l137 -135v273zM1694 1370v-1522h-1524v1522h1524z" />
    <glyph glyph-name="Korea1.8736" unicode="&#x25b1;" 
 />
    <glyph glyph-name="Korea1.167" unicode="&#x25b2;" horiz-adv-x="1863" 
d="M1683 -141h-1503l752 1497z" />
    <glyph glyph-name="Korea1.166" unicode="&#x25b3;" horiz-adv-x="1863" 
d="M1686 -141h-1508l754 1497zM348 -39h1159l-579 1157z" />
    <glyph glyph-name="Korea1.8780" unicode="&#x25b5;" 
 />
    <glyph glyph-name="Korea1.220" unicode="&#x25b6;" horiz-adv-x="1863" 
d="M299 1413l1266 -799l-1266 -794v1593z" />
    <glyph glyph-name="Korea1.219" unicode="&#x25b7;" horiz-adv-x="1863" 
d="M365 -55l1071 669l-1071 674v-1343zM299 1413l1266 -799l-1266 -794v1593z" />
    <glyph glyph-name="Korea1.8781" unicode="&#x25b9;" 
 />
    <glyph glyph-name="Korea1.169" unicode="&#x25bc;" horiz-adv-x="1863" 
d="M180 1335h1503l-751 -1497z" />
    <glyph glyph-name="Korea1.168" unicode="&#x25bd;" horiz-adv-x="1863" 
d="M178 1335h1508l-754 -1497zM1511 1231h-1159l580 -1157z" />
    <glyph glyph-name="Korea1.8779" unicode="&#x25bf;" 
 />
    <glyph glyph-name="Korea1.218" unicode="&#x25c0;" horiz-adv-x="1863" 
d="M1565 1413v-1593l-1266 794z" />
    <glyph glyph-name="Korea1.217" unicode="&#x25c1;" horiz-adv-x="1863" 
d="M428 614l1071 -669v1343zM1565 1413v-1593l-1266 794z" />
    <glyph glyph-name="Korea1.8782" unicode="&#x25c3;" 
 />
    <glyph glyph-name="Korea1.163" unicode="&#x25c6;" horiz-adv-x="1863" 
d="M934 -94l-799 799l797 794l797 -797z" />
    <glyph glyph-name="Korea1.162" unicode="&#x25c7;" horiz-adv-x="1863" 
d="M135 702l797 797l794 -797l-794 -796zM1569 702l-637 639l-639 -636l639 -642z" />
    <glyph glyph-name="Korea1.228" unicode="&#x25c8;" horiz-adv-x="1863" 
d="M932 1157l549 -549l-549 -549l-551 549zM930 -178l788 788l-786 785l-789 -787zM932 1499l889 -889l-891 -889l-887 887z" />
    <glyph glyph-name="Korea1.8787" unicode="&#x25ca;" 
 />
    <glyph glyph-name="Korea1.159" unicode="&#x25cb;" horiz-adv-x="1863" 
d="M197 704q0 304 215 520t519 216t519 -216t215 -520t-215 -520t-520 -216t-519 216t-214 520zM930 74q264 0 448 184t184 446t-184 448t-446 185.5t-448 -186t-186 -447.5t184 -446t448 -184z" />
    <glyph glyph-name="Korea1.8639" unicode="&#x25cc;" 
 />
    <glyph glyph-name="Korea1.161" unicode="&#x25ce;" horiz-adv-x="1863" 
d="M197 704q0 304 215 520t519 216t519 -216t215 -520t-215 -520t-520 -216t-519 216t-214 520zM932 1333q-260 0 -444 -185.5t-184 -443.5t182 -442t444 -184t445 183t183 443t-182 445q-184 184 -444 184zM489 705q0 182 129 311q130 129 312 129t311 -128.5t129 -310.5
t-129 -312t-311 -130t-312 129q-129 130 -129 312zM931 1038q-137 0 -235 -99t-98 -235t97 -234t235 -98t236 98t98 234t-98 235t-235 99z" />
    <glyph glyph-name="Korea1.160" unicode="&#x25cf;" horiz-adv-x="1863" 
d="M197 704q0 304 215 520t519 216t519 -216t215 -520t-215 -520t-520 -216t-519 216t-214 520z" />
    <glyph glyph-name="Korea1.230" unicode="&#x25d0;" horiz-adv-x="1863" 
d="M1651 612q0 296 -212 507.5t-507 211.5v-1435q295 0 507 210t212 506zM934 -186q-330 0 -566 234t-235 564q-1 330 235 564t566 235t564 -233t234 -566t-234 -565t-564 -233z" />
    <glyph glyph-name="Korea1.231" unicode="&#x25d1;" horiz-adv-x="1863" 
d="M932 -104v1435q-295 0 -507 -211.5t-212 -507.5t212 -506t507 -210zM930 -186q-330 0 -563 233t-234 565t233 566t564 233t566 -235t236 -564t-236 -564t-566 -234z" />
    <glyph glyph-name="Korea1.8775" unicode="&#x25e6;" 
 />
    <glyph glyph-name="Korea1.8633" unicode="&#x25ef;" 
 />
    <glyph glyph-name="Korea1.158" unicode="&#x2605;" horiz-adv-x="1863" 
d="M936 1565l221 -654h690l-559 -415l209 -660l-561 400l-571 -400l215 660l-564 415h701z" />
    <glyph glyph-name="Korea1.157" unicode="&#x2606;" horiz-adv-x="1863" 
d="M936 1565l221 -654h690l-559 -415l209 -660l-561 400l-571 -400l215 660l-564 415h701zM1102 836l-168 493l-164 -493h-528l424 -316l-166 -497l434 303l424 -303l-156 497l422 316h-522z" />
    <glyph glyph-name="Korea1.241" unicode="&#x260e;" horiz-adv-x="1863" 
d="M1233 426q0 125 -88 213t-213 88t-213 -88t-88 -213t88 -212t213 -87t213 87t88 212zM772 899h320v133q-78 -20 -160 -20t-160 20v-133zM1604 -43h-1344q-68 0 -70 33q-6 51 4 102t39 62q0 225 144 346q53 42 81 70q75 73 110 205q36 132 20 251q-102 -16 -113 -76
q-4 -18 18 -80t15 -82q-12 -63 -174 -110q-181 -44 -219 -36t-49 30q-29 36 -13 144t70 175q93 123 319 185t490 62t489 -61.5t320 -185.5q53 -68 69 -175t-12 -144q-33 -56 -268 6q-162 47 -174 110q-6 23 14 83t19 79q-10 59 -113 76q-16 -129 18 -252t112 -204
q28 -28 81 -70q143 -121 143 -346q29 -10 39 -62t4 -102q-2 -33 -69 -33z" />
    <glyph glyph-name="Korea1.240" unicode="&#x260f;" horiz-adv-x="1863" 
d="M1233 426q0 125 -88 213t-213 88t-213 -88t-88 -213t88 -212t213 -87t213 87t88 212zM932 774q144 0 246 -102t102 -246t-102 -246t-246 -102t-246 102t-102 246t102 246t246 102zM250 0h1364q8 0 12 27t-5 59t-30 45q0 70 -21 155q-22 85 -71 132q-139 133 -169 175
t-48 89q-68 186 -53 350h-96v-172h-402v172h-96q14 -164 -53 -350q-39 -99 -147 -198q-48 -44 -51 -48t-9 -9q-57 -47 -80 -137t-23 -159q-20 -11 -29 -45t-5 -60t12 -26zM914 1200q-194 0 -398 -47t-284 -113q-82 -66 -112 -148t-25 -138.5t24 -61.5q74 -6 170 21t162 63
q14 8 4 46t-21 78q-10 40 4 83q37 92 271 92q37 0 103 -13t120 -13t120 13t149 13q179 0 224 -92q25 -56 -15 -161q-10 -28 3 -46q59 -36 159 -64t173 -20q20 4 24.5 60t-27.5 139t-110 147t-301 113t-417 49zM772 899h320v133q-78 -20 -160 -20t-160 20v-133zM1604 -43
h-1344q-68 0 -70 33q-6 51 4 102t39 62q0 225 144 346q53 42 81 70q75 73 110 205q36 132 20 251q-102 -16 -113 -76q-4 -18 18 -80t15 -82q-12 -63 -174 -110q-181 -44 -219 -36t-49 30q-29 36 -13 144t70 175q93 123 319 185t490 62t489 -61.5t320 -185.5q53 -68 69 -175
t-12 -144q-33 -56 -268 6q-162 47 -174 110q-6 23 14 83t19 79q-10 59 -113 76q-16 -129 18 -252t112 -204q28 -28 81 -70q143 -121 143 -346q29 -10 39 -62t4 -102q-2 -33 -69 -33z" />
    <glyph glyph-name="Korea1.242" unicode="&#x261c;" horiz-adv-x="1863" 
d="M1735 860v-483h-156v43h-59q-129 -78 -344 -113q-78 -10 -203 -10.5t-209 13.5t-94 60t28 70q-28 0 -52 20t-26 52t23 57q-74 8 -74 68q0 45 39 63t129 19l-6 16q-495 15 -549 37t-55 66q0 66 219 77q92 13 356 13h283q113 0 173 -4t150 -32t150 -85q66 -16 123 -12v65
h154zM1581 444v316q-47 -4 -90 6q10 -40 5 -38t-15 11q-39 47 -107 93t-194 60t-196.5 4.5t-135.5 -50.5q-23 -12 -42 -51t-42 -54q-12 -16 9 -19q50 -7 100 38q25 20 37 32t20 4t-12 -30q73 -28 158 25q9 4 11 0q8 -23 -28 -48q16 -23 72.5 -65t144.5 -56t110 -17t23 -13
q-2 -12 -64 -8t-114 18q-137 45 -205 137q-12 -8 -51 -7t-82 13l-31 -26q121 0 133 -51q14 -53 -22 -84q57 -14 63 -58q4 -41 -30 -65q59 -12 65 -58q4 -33 -9 -49t-18 -18q29 -6 72 0q250 23 414 127q12 10 14 -2l-4 -17h41zM162 838q0 -28 39 -38t170 -18q313 -14 383 -16
l43 65q35 48 82 64q-139 -1 -381 -7t-289 -14t-47 -36zM1612 410h90v415h-90v-415zM940 465q60 -1 64 45q2 24 -12 36t-63 19q-49 6 -227 -2q-20 -2 -33 -16t-14 -35q0 -33 52 -41q18 -4 123 -6t110 0zM1038 397q-2 37 -63 37q-143 4 -232 -2q-45 -4 -36 -49q4 -31 36 -37
q100 -20 234 -8q67 4 61 59zM956 647q0 33 -41 35q-180 10 -274 0q-43 -6 -39 -45q0 -15 11 -27t30 -12q158 -8 275 4q38 6 38 45z" />
    <glyph glyph-name="Korea1.9222" unicode="&#x261d;" 
 />
    <glyph glyph-name="Korea1.243" unicode="&#x261e;" horiz-adv-x="1863" 
d="M1292 637q0 -59 -73 -68q25 -25 23 -57t-26 -52t-53 -20q39 -24 29 -70t-94 -60t-209 -14t-203 11q-215 35 -344 113h-59v-43h-156v483h154v-65q57 -4 122 12q61 57 151 85t150 32t125 4h76q461 0 611 -10t184 -30t36 -48q0 -28 -16 -46q-33 -37 -207 -42l-22 -2h-10
q-143 -8 -351 -15l-6 -16q90 -1 129 -19t39 -63zM281 444h41q-7 25 -3 25t13 -6q164 -104 413 -127q41 -6 70 0q-2 0 -9 7q-23 23 -15 60q6 45 65 58q-35 25 -31 65q10 43 64 58q-37 31 -23 84q16 51 133 51l-30 26q-43 -12 -82 -13t-51 7q-68 -92 -205 -137
q-51 -14 -113 -18t-65 8q1 10 23 13q116 15 169 33t97 50.5t61 54.5q-37 25 -29 48q3 5 33 -11q73 -39 137 -14q-18 20 -11 28t19 -2q54 -50 98 -68t50 7q2 6 -2 10q-22 13 -42 53t-42 52q-66 41 -136 50t-196 -5t-194 -59t-107 -93q-13 -14 -15 -7t5 34q-43 -10 -90 -6
v-316zM1700 838q0 28 -47 36q-128 20 -670 21q47 -16 82 -64l43 -65q70 2 383 16q173 12 191 26t18 30zM160 410h90v415h-90v-415zM1206 512q0 20 -13 34t-34 17q-260 12 -290 -16q-13 -13 -11 -37q4 -45 64 -45q4 -2 109 0t124 6q51 8 51 41zM1118 346q33 6 39 44t-39 42
q-88 6 -231 2q-61 0 -64 -37q-6 -55 62 -59q133 -12 233 8zM905 647q0 -39 39 -45q117 -12 275 -4q17 0 29 12t12 27q4 39 -39 45q-94 10 -275 0q-41 -2 -41 -35z" />
    <glyph glyph-name="Korea1.9223" unicode="&#x261f;" 
 />
    <glyph glyph-name="Korea1.8664" unicode="&#x262f;" 
 />
    <glyph glyph-name="Korea1.147" unicode="&#x2640;" horiz-adv-x="1335" 
d="M598 117v266q-214 29 -356 187t-142 385t165 393t402 166t403 -166t166 -394t-143 -386q-142 -158 -356 -185v-266h291v-131h-291v-291h-139v291h-293v131h293zM229.5 947q0.5 -185 126.5 -317t310 -132t312 132t128 316t-127 316t-312 132t-312 -130
q-126 -132 -125.5 -317z" />
    <glyph glyph-name="Korea1.146" unicode="&#x2642;" horiz-adv-x="1589" 
d="M100 536q0 236 165 402t403 166q193 0 350 -121l248 246h-224v129h449v-447h-131v226l-248 -250q123 -156 123 -350q-1 -236 -167 -402t-402 -166t-401 165.5t-165 401.5zM667 984.5q-185 0.5 -311 -130t-126 -316.5t126 -318t310 -132t312 132t128 316t-127 316
t-312 132.5z" />
    <glyph glyph-name="Korea1.222" unicode="&#x2660;" horiz-adv-x="1863" 
d="M1602 418q0 -140 -79 -228t-206 -88q-55 0 -107 22t-145 75q4 -80 35 -195t71 -190q18 -39 -28 -45q-217 -24 -422 0q-47 6 -29 45q88 180 107 385q-93 -53 -145 -75t-107 -22q-127 0 -206 87t-79 223q0 199 371 686q78 100 299 379q362 -455 481 -633q189 -286 189 -426
z" />
    <glyph glyph-name="Korea1.223" unicode="&#x2661;" horiz-adv-x="1863" 
d="M1556 979q0 131 -79 222q-80 91 -235 91t-232 -256q-20 -65 -37 -86q-18 -20 -45 -20t-43 28t-39 104t-82 153t-143 77q-154 0 -234 -91t-80 -222q0 -243 215 -555q177 -254 410 -496q230 238 409 496q215 309 215 555zM1649 992q0 -290 -251 -643q-208 -291 -466 -542
q-259 251 -466 542q-251 349 -251 643q-1 154 105 270t258 116q270 0 354 -368q84 369 354 368q152 0 258 -116t105 -270z" />
    <glyph glyph-name="Korea1.226" unicode="&#x2663;" horiz-adv-x="1863" 
d="M1411 799q143 1 241 -109t98 -262t-97.5 -264t-261.5 -112t-318 167q80 -188 80 -416q0 -29 -37 -32q-68 -7 -184 -7t-184 7q-37 4 -37 32q0 109 23 227q24 118 57 189q-154 -168 -318 -168t-261 113t-97 264t97 261t241 110q94 0 249 -76q44 -19 60 7t-17 58
q-102 90 -143 163t-41 179q-1 148 109 240t262 92t262 -92t109 -240q0 -106 -41 -179t-144 -163q-34 -34 -18 -60t61 -5q156 76 250 76z" />
    <glyph glyph-name="Korea1.221" unicode="&#x2664;" horiz-adv-x="1863" 
d="M1511 420q0 227 -579 926q-580 -698 -580 -926q0 -88 49 -162t133 -74t176 56t107 57q41 1 53 -21t6 -112t-65 -277q-8 -37 39 -39q49 -4 82 -4t82 4q47 2 39 39q-59 187 -65 277t5 112q12 22 54 21q16 -1 108 -57t175 -56t132 74t49 162zM1602 418q0 -140 -79 -228
t-206 -88q-55 0 -107 22t-145 75q4 -80 35 -195t71 -190q18 -39 -28 -45q-217 -24 -422 0q-47 6 -29 45q88 180 107 385q-93 -53 -145 -75t-107 -22q-127 0 -206 87t-79 223q0 199 371 686q78 100 299 379q362 -455 481 -633q189 -286 189 -426z" />
    <glyph glyph-name="Korea1.224" unicode="&#x2665;" horiz-adv-x="1863" 
d="M1649 992q0 -290 -251 -643q-208 -291 -466 -542q-259 251 -466 542q-251 349 -251 643q-1 154 105 270t258 116q270 0 354 -368q84 369 354 368q152 0 258 -116t105 -270z" />
    <glyph glyph-name="Korea1.225" unicode="&#x2667;" horiz-adv-x="1863" 
d="M1399 141q117 0 187 87t71 202q0 115 -70 203t-178 88q-78 1 -178 -53t-140 -54t-69 31t-29 84.5t54.5 101t87.5 81.5q79 80 78 206t-84 194t-197 68t-198 -68t-83 -192q0 -124 78 -208q33 -34 65 -62q78 -70 77 -122t-29 -83t-68 -31t-140.5 54t-178.5 53
q-109 0 -179 -88t-70 -203t72 -202t187 -87q72 0 133 30t96 67q91 96 142 96q22 0 28 -11t6 -46t-32 -165t-31 -245q0 -25 37 -29t88 -4t88 4t37 29q0 115 -32 245t-32 165t6 46t32 11q44 0 137 -96q36 -37 98 -67t133 -30zM1411 799q143 1 241 -109t98 -262t-97.5 -264
t-261.5 -112t-318 167q80 -188 80 -416q0 -29 -37 -32q-68 -7 -184 -7t-184 7q-37 4 -37 32q0 109 23 227q24 118 57 189q-154 -168 -318 -168t-261 113t-97 264t97 261t241 110q94 0 249 -76q44 -19 60 7t-17 58q-102 90 -143 163t-41 179q-1 148 109 240t262 92t262 -92
t109 -240q0 -106 -41 -179t-144 -163q-34 -34 -18 -60t61 -5q156 76 250 76z" />
    <glyph glyph-name="Korea1.239" unicode="&#x2668;" horiz-adv-x="1863" 
d="M1747 207q1 -184 -237 -306t-570 -122t-579 106t-246 267q0 76 48 142t126 110q148 81 252 108q25 8 27 -10t-23 -27q-281 -127 -281 -282q0 -97 206 -153t470 -56t473 70t209 182q0 76 -80 139t-156 86q-24 8 -18 22q12 27 116 -14q150 -56 220 -143q43 -56 43 -119z
M630 510q0 128 -30 197q-100 242 45 512q33 57 41 95q16 73 35 29q37 -106 -21 -307q-18 -68 29 -246t56 -266t-113 -327q-45 -85 -47 -111t-13 -35t-24 19q-42 88 0 200t42 240zM956 1434q0 14 6 19t14 0t22 -39t20 -117t-25 -195q-49 -140 9 -288t73 -228q0 -33 2 -56
q7 -76 -89 -256t-100 -213q-2 -32 -16 -29q-15 3 -20 15q-45 104 16 252q37 86 40.5 220.5t-44.5 234.5t-46 162t2 93q2 60 89 234q47 96 47 191zM1253 1042q-13 -104 35 -226t57 -210t-15 -161t-76 -153t-56 -85q-39 -76 -57 -150q-16 -33 -33 5q-10 22 -8 88t20 110
q119 297 54 453q-81 185 -49 335q13 60 45 135t30 148q0 19 9 23t20 -19q53 -100 24 -293z" />
    <glyph glyph-name="Korea1.253" unicode="&#x2669;" horiz-adv-x="794" 
d="M590 1356v-1120q0 -92 -14 -150t-58 -106q-61 -74 -142 -103t-143 27q-49 68 -13 148t115 126t177 62v1116h78z" />
    <glyph glyph-name="Korea1.254" unicode="&#x266a;" horiz-adv-x="1103" 
d="M981 694q0 -198 -180 -375q-61 -59 -101 -83t-48 -12t10 28q203 197 202 395q0 138 -180 220q-64 30 -176 65v-696q0 -92 -14 -150t-58 -106q-61 -74 -142 -103t-142 27q-50 68 -14 148t115 126t177 62v1024q0 82 20 82t76 -66t129 -129q176 -151 251 -257t75 -200z" />
    <glyph glyph-name="Korea1.255" unicode="&#x266c;" horiz-adv-x="1419" 
d="M514 844l711 151v119l-711 -151v-119zM1307 391q0 -129 -138 -244q-88 -74 -172 -67q-47 4 -75 41q-31 49 -1 119q67 157 304 190v373l-711 -154v-456q0 -129 -137 -244q-87 -73 -172 -68q-47 4 -76 41q-31 49 -1 119q68 159 304 190v914l875 176v-930z" />
    <glyph glyph-name="Korea1.252" unicode="&#x266d;" horiz-adv-x="1058" 
d="M856 543q0 -131 -42 -235t-107 -169q-184 -176 -504 -190v1362h129v-672q70 195 286 195q100 0 169 -80t69 -211zM700 469h2q0 111 -40 185t-107 75q-103 0 -163 -78t-60 -164v-438q127 8 242 102q56 46 92 129q34 83 34 189z" />
    <glyph glyph-name="Korea1.8594" unicode="&#x266f;" 
 />
    <glyph glyph-name="Korea1.8631" unicode="&#x2716;" 
 />
    <glyph glyph-name="Korea1.8630" unicode="&#x271a;" 
 />
    <glyph glyph-name="Korea1.8604" unicode="&#x273d;" 
 />
    <glyph glyph-name="Korea1.8637" unicode="&#x2756;" 
 />
    <glyph glyph-name="Korea1.8673" unicode="&#x2776;" 
 />
    <glyph glyph-name="Korea1.8674" unicode="&#x2777;" 
 />
    <glyph glyph-name="Korea1.8675" unicode="&#x2778;" 
 />
    <glyph glyph-name="Korea1.8676" unicode="&#x2779;" 
 />
    <glyph glyph-name="Korea1.8677" unicode="&#x277a;" 
 />
    <glyph glyph-name="Korea1.8678" unicode="&#x277b;" 
 />
    <glyph glyph-name="Korea1.8679" unicode="&#x277c;" 
 />
    <glyph glyph-name="Korea1.8680" unicode="&#x277d;" 
 />
    <glyph glyph-name="Korea1.8681" unicode="&#x277e;" 
 />
    <glyph glyph-name="Korea1.8682" unicode="&#x277f;" 
 />
    <glyph glyph-name="Korea1.8342" unicode="&#x278a;" 
 />
    <glyph glyph-name="Korea1.8343" unicode="&#x278b;" 
 />
    <glyph glyph-name="Korea1.8344" unicode="&#x278c;" 
 />
    <glyph glyph-name="Korea1.8345" unicode="&#x278d;" 
 />
    <glyph glyph-name="Korea1.8346" unicode="&#x278e;" 
 />
    <glyph glyph-name="Korea1.8347" unicode="&#x278f;" 
 />
    <glyph glyph-name="Korea1.8348" unicode="&#x2790;" 
 />
    <glyph glyph-name="Korea1.8349" unicode="&#x2791;" 
 />
    <glyph glyph-name="Korea1.8350" unicode="&#x2792;" 
 />
    <glyph glyph-name="Korea1.8351" unicode="&#x2793;" 
 />
    <glyph glyph-name="Korea1.8485" unicode="&#x2ac5;" 
 />
    <glyph glyph-name="Korea1.8487" unicode="&#x2ac6;" 
 />
    <glyph glyph-name="Korea1.6460" unicode="&#x2f00;" 
 />
    <glyph glyph-name="Korea1.6380" unicode="&#x2f04;" 
 />
    <glyph glyph-name="Korea1.6413" unicode="&#x2f06;" 
 />
    <glyph glyph-name="Korea1.6443" unicode="&#x2f08;" 
 />
    <glyph glyph-name="Korea1.6477" unicode="&#x2f0a;" 
 />
    <glyph glyph-name="Korea1.7499" unicode="&#x2f0b;" 
 />
    <glyph glyph-name="Korea1.4270" unicode="&#x2f11;" 
 />
    <glyph glyph-name="Korea1.4458" unicode="&#x2f12;" 
 />
    <glyph glyph-name="Korea1.5183" unicode="&#x2f14;" 
 />
    <glyph glyph-name="Korea1.5772" unicode="&#x2f17;" 
 />
    <glyph glyph-name="Korea1.5077" unicode="&#x2f18;" 
 />
    <glyph glyph-name="Korea1.6201" unicode="&#x2f1c;" 
 />
    <glyph glyph-name="Korea1.3901" unicode="&#x2f1d;" 
 />
    <glyph glyph-name="Korea1.7451" unicode="&#x2f1f;" 
 />
    <glyph glyph-name="Korea1.5255" unicode="&#x2f20;" 
 />
    <glyph glyph-name="Korea1.5403" unicode="&#x2f23;" 
 />
    <glyph glyph-name="Korea1.4253" unicode="&#x2f24;" 
 />
    <glyph glyph-name="Korea1.4159" unicode="&#x2f25;" 
 />
    <glyph glyph-name="Korea1.6488" unicode="&#x2f26;" 
 />
    <glyph glyph-name="Korea1.7247" unicode="&#x2f28;" 
 />
    <glyph glyph-name="Korea1.5504" unicode="&#x2f29;" 
 />
    <glyph glyph-name="Korea1.5697" unicode="&#x2f2b;" 
 />
    <glyph glyph-name="Korea1.5305" unicode="&#x2f2d;" 
 />
    <glyph glyph-name="Korea1.3791" unicode="&#x2f2f;" 
 />
    <glyph glyph-name="Korea1.4077" unicode="&#x2f30;" 
 />
    <glyph glyph-name="Korea1.3604" unicode="&#x2f31;" 
 />
    <glyph glyph-name="Korea1.3481" unicode="&#x2f32;" 
 />
    <glyph glyph-name="Korea1.3964" unicode="&#x2f38;" 
 />
    <glyph glyph-name="Korea1.5764" unicode="&#x2f3c;" 
 />
    <glyph glyph-name="Korea1.3804" unicode="&#x2f3d;" 
 />
    <glyph glyph-name="Korea1.7808" unicode="&#x2f3e;" 
 />
    <glyph glyph-name="Korea1.5580" unicode="&#x2f3f;" 
 />
    <glyph glyph-name="Korea1.6951" unicode="&#x2f40;" 
 />
    <glyph glyph-name="Korea1.4840" unicode="&#x2f42;" 
 />
    <glyph glyph-name="Korea1.4349" unicode="&#x2f43;" 
 />
    <glyph glyph-name="Korea1.4027" unicode="&#x2f44;" 
 />
    <glyph glyph-name="Korea1.4950" unicode="&#x2f45;" 
 />
    <glyph glyph-name="Korea1.4819" unicode="&#x2f46;" 
 />
    <glyph glyph-name="Korea1.6464" unicode="&#x2f47;" 
 />
    <glyph glyph-name="Korea1.6125" unicode="&#x2f48;" 
 />
    <glyph glyph-name="Korea1.6281" unicode="&#x2f49;" 
 />
    <glyph glyph-name="Korea1.4788" unicode="&#x2f4a;" 
 />
    <glyph glyph-name="Korea1.8027" unicode="&#x2f4b;" 
 />
    <glyph glyph-name="Korea1.6956" unicode="&#x2f4c;" 
 />
    <glyph glyph-name="Korea1.4822" unicode="&#x2f4f;" 
 />
    <glyph glyph-name="Korea1.5196" unicode="&#x2f50;" 
 />
    <glyph glyph-name="Korea1.4776" unicode="&#x2f51;" 
 />
    <glyph glyph-name="Korea1.5774" unicode="&#x2f52;" 
 />
    <glyph glyph-name="Korea1.5587" unicode="&#x2f54;" 
 />
    <glyph glyph-name="Korea1.7867" unicode="&#x2f55;" 
 />
    <glyph glyph-name="Korea1.6803" unicode="&#x2f56;" 
 />
    <glyph glyph-name="Korea1.5129" unicode="&#x2f57;" 
 />
    <glyph glyph-name="Korea1.7962" unicode="&#x2f58;" 
 />
    <glyph glyph-name="Korea1.7521" unicode="&#x2f5a;" 
 />
    <glyph glyph-name="Korea1.5782" unicode="&#x2f5b;" 
 />
    <glyph glyph-name="Korea1.6210" unicode="&#x2f5c;" 
 />
    <glyph glyph-name="Korea1.3639" unicode="&#x2f5d;" 
 />
    <glyph glyph-name="Korea1.7741" unicode="&#x2f5e;" 
 />
    <glyph glyph-name="Korea1.6081" unicode="&#x2f5f;" 
 />
    <glyph glyph-name="Korea1.3806" unicode="&#x2f60;" 
 />
    <glyph glyph-name="Korea1.6100" unicode="&#x2f61;" 
 />
    <glyph glyph-name="Korea1.3521" unicode="&#x2f62;" 
 />
    <glyph glyph-name="Korea1.5370" unicode="&#x2f63;" 
 />
    <glyph glyph-name="Korea1.6189" unicode="&#x2f64;" 
 />
    <glyph glyph-name="Korea1.6664" unicode="&#x2f65;" 
 />
    <glyph glyph-name="Korea1.7610" unicode="&#x2f66;" 
 />
    <glyph glyph-name="Korea1.4993" unicode="&#x2f69;" 
 />
    <glyph glyph-name="Korea1.7600" unicode="&#x2f6a;" 
 />
    <glyph glyph-name="Korea1.4755" unicode="&#x2f6b;" 
 />
    <glyph glyph-name="Korea1.4791" unicode="&#x2f6c;" 
 />
    <glyph glyph-name="Korea1.4781" unicode="&#x2f6d;" 
 />
    <glyph glyph-name="Korea1.5709" unicode="&#x2f6e;" 
 />
    <glyph glyph-name="Korea1.5413" unicode="&#x2f6f;" 
 />
    <glyph glyph-name="Korea1.5710" unicode="&#x2f70;" 
 />
    <glyph glyph-name="Korea1.7870" unicode="&#x2f72;" 
 />
    <glyph glyph-name="Korea1.7755" unicode="&#x2f73;" 
 />
    <glyph glyph-name="Korea1.4653" unicode="&#x2f74;" 
 />
    <glyph glyph-name="Korea1.6900" unicode="&#x2f75;" 
 />
    <glyph glyph-name="Korea1.4863" unicode="&#x2f76;" 
 />
    <glyph glyph-name="Korea1.5132" unicode="&#x2f78;" 
 />
    <glyph glyph-name="Korea1.5896" unicode="&#x2f7a;" 
 />
    <glyph glyph-name="Korea1.6218" unicode="&#x2f7b;" 
 />
    <glyph glyph-name="Korea1.4519" unicode="&#x2f7c;" 
 />
    <glyph glyph-name="Korea1.6427" unicode="&#x2f7d;" 
 />
    <glyph glyph-name="Korea1.6428" unicode="&#x2f7f;" 
 />
    <glyph glyph-name="Korea1.6368" unicode="&#x2f80;" 
 />
    <glyph glyph-name="Korea1.6357" unicode="&#x2f81;" 
 />
    <glyph glyph-name="Korea1.5749" unicode="&#x2f82;" 
 />
    <glyph glyph-name="Korea1.6502" unicode="&#x2f83;" 
 />
    <glyph glyph-name="Korea1.6967" unicode="&#x2f84;" 
 />
    <glyph glyph-name="Korea1.3930" unicode="&#x2f85;" 
 />
    <glyph glyph-name="Korea1.5456" unicode="&#x2f86;" 
 />
    <glyph glyph-name="Korea1.7158" unicode="&#x2f87;" 
 />
    <glyph glyph-name="Korea1.6888" unicode="&#x2f88;" 
 />
    <glyph glyph-name="Korea1.3496" unicode="&#x2f89;" 
 />
    <glyph glyph-name="Korea1.5368" unicode="&#x2f8a;" 
 />
    <glyph glyph-name="Korea1.7232" unicode="&#x2f8b;" 
 />
    <glyph glyph-name="Korea1.7756" unicode="&#x2f8e;" 
 />
    <glyph glyph-name="Korea1.7709" unicode="&#x2f8f;" 
 />
    <glyph glyph-name="Korea1.6409" unicode="&#x2f90;" 
 />
    <glyph glyph-name="Korea1.3644" unicode="&#x2f92;" 
 />
    <glyph glyph-name="Korea1.3474" unicode="&#x2f93;" 
 />
    <glyph glyph-name="Korea1.5921" unicode="&#x2f94;" 
 />
    <glyph glyph-name="Korea1.3772" unicode="&#x2f95;" 
 />
    <glyph glyph-name="Korea1.4355" unicode="&#x2f96;" 
 />
    <glyph glyph-name="Korea1.5718" unicode="&#x2f97;" 
 />
    <glyph glyph-name="Korea1.7512" unicode="&#x2f99;" 
 />
    <glyph glyph-name="Korea1.6636" unicode="&#x2f9a;" 
 />
    <glyph glyph-name="Korea1.6892" unicode="&#x2f9b;" 
 />
    <glyph glyph-name="Korea1.6830" unicode="&#x2f9c;" 
 />
    <glyph glyph-name="Korea1.5755" unicode="&#x2f9d;" 
 />
    <glyph glyph-name="Korea1.7053" unicode="&#x2f9e;" 
 />
    <glyph glyph-name="Korea1.5756" unicode="&#x2f9f;" 
 />
    <glyph glyph-name="Korea1.7009" unicode="&#x2fa0;" 
 />
    <glyph glyph-name="Korea1.6389" unicode="&#x2fa2;" 
 />
    <glyph glyph-name="Korea1.6352" unicode="&#x2fa3;" 
 />
    <glyph glyph-name="Korea1.4634" unicode="&#x2fa5;" 
 />
    <glyph glyph-name="Korea1.4131" unicode="&#x2fa6;" 
 />
    <glyph glyph-name="Korea1.6568" unicode="&#x2fa7;" 
 />
    <glyph glyph-name="Korea1.4846" unicode="&#x2fa8;" 
 />
    <glyph glyph-name="Korea1.5147" unicode="&#x2fa9;" 
 />
    <glyph glyph-name="Korea1.6227" unicode="&#x2fac;" 
 />
    <glyph glyph-name="Korea1.7203" unicode="&#x2fad;" 
 />
    <glyph glyph-name="Korea1.5220" unicode="&#x2fae;" 
 />
    <glyph glyph-name="Korea1.4744" unicode="&#x2faf;" 
 />
    <glyph glyph-name="Korea1.7733" unicode="&#x2fb0;" 
 />
    <glyph glyph-name="Korea1.6307" unicode="&#x2fb1;" 
 />
    <glyph glyph-name="Korea1.6385" unicode="&#x2fb3;" 
 />
    <glyph glyph-name="Korea1.7757" unicode="&#x2fb4;" 
 />
    <glyph glyph-name="Korea1.7595" unicode="&#x2fb5;" 
 />
    <glyph glyph-name="Korea1.5221" unicode="&#x2fb6;" 
 />
    <glyph glyph-name="Korea1.5733" unicode="&#x2fb7;" 
 />
    <glyph glyph-name="Korea1.5625" unicode="&#x2fb8;" 
 />
    <glyph glyph-name="Korea1.7718" unicode="&#x2fb9;" 
 />
    <glyph glyph-name="Korea1.4661" unicode="&#x2fba;" 
 />
    <glyph glyph-name="Korea1.3785" unicode="&#x2fbb;" 
 />
    <glyph glyph-name="Korea1.3765" unicode="&#x2fbc;" 
 />
    <glyph glyph-name="Korea1.3993" unicode="&#x2fc1;" 
 />
    <glyph glyph-name="Korea1.5910" unicode="&#x2fc2;" 
 />
    <glyph glyph-name="Korea1.6827" unicode="&#x2fc3;" 
 />
    <glyph glyph-name="Korea1.4527" unicode="&#x2fc4;" 
 />
    <glyph glyph-name="Korea1.4533" unicode="&#x2fc5;" 
 />
    <glyph glyph-name="Korea1.4726" unicode="&#x2fc6;" 
 />
    <glyph glyph-name="Korea1.4663" unicode="&#x2fc7;" 
 />
    <glyph glyph-name="Korea1.7927" unicode="&#x2fc8;" 
 />
    <glyph glyph-name="Korea1.5401" unicode="&#x2fc9;" 
 />
    <glyph glyph-name="Korea1.8018" unicode="&#x2fca;" 
 />
    <glyph glyph-name="Korea1.6758" unicode="&#x2fcd;" 
 />
    <glyph glyph-name="Korea1.3766" unicode="&#x2fce;" 
 />
    <glyph glyph-name="Korea1.5402" unicode="&#x2fcf;" 
 />
    <glyph glyph-name="Korea1.5222" unicode="&#x2fd0;" 
 />
    <glyph glyph-name="Korea1.6781" unicode="&#x2fd1;" 
 />
    <glyph glyph-name="Korea1.7359" unicode="&#x2fd2;" 
 />
    <glyph glyph-name="Korea1.4563" unicode="&#x2fd3;" 
 />
    <glyph glyph-name="Korea1.3946" unicode="&#x2fd4;" 
 />
    <glyph glyph-name="Korea1.101" unicode="&#x3000;" horiz-adv-x="1863" 
 />
    <glyph glyph-name="Korea1.102" unicode="&#x3001;" horiz-adv-x="1863" 
d="M659 -109l-131 -116q-104 141 -187 229t-206 184l117 103q131 -97 216 -181t191 -219z" />
    <glyph glyph-name="Korea1.103" unicode="&#x3002;" horiz-adv-x="1863" 
d="M357 -217q-128 0 -210 84q-81 84 -81 208t81 208q82 84 210 84t210 -84t82 -208t-82 -208t-210 -84zM356 264q-82 0 -134 -55t-52 -133t52 -134t134 -56t136 56t53 134q0 78 -53 133q-54 55 -136 55z" />
    <glyph glyph-name="Korea1.108" unicode="&#x3003;" horiz-adv-x="1863" 
d="M791 913h170l-314 -632h-112zM1159 913h170l-313 -632h-113z" />
    <glyph glyph-name="Korea1.120" unicode="&#x3008;" horiz-adv-x="956" 
d="M217 616l651 -825l-80 -61l-698 886l696 887l82 -61z" />
    <glyph glyph-name="Korea1.121" unicode="&#x3009;" horiz-adv-x="976" 
d="M178 1503l699 -887l-697 -886l-82 61l652 825l-652 826z" />
    <glyph glyph-name="Korea1.122" unicode="&#x300a;" horiz-adv-x="970" 
d="M170 616l508 -876l-84 -49l-535 925l535 926l84 -49zM397 616l506 -876l-84 -49l-534 925l534 926l84 -49z" />
    <glyph glyph-name="Korea1.123" unicode="&#x300b;" horiz-adv-x="970" 
d="M139 1542l535 -926l-535 -925l-84 49l506 876l-506 877zM365 1542l534 -926l-534 -925l-84 49l507 876l-507 877z" />
    <glyph glyph-name="Korea1.124" unicode="&#x300c;" horiz-adv-x="718" 
d="M664 1575v-125h-459v-760h-150v885h609z" />
    <glyph glyph-name="Korea1.125" unicode="&#x300d;" horiz-adv-x="718" 
d="M664 543v-885h-609v125h459v760h150z" />
    <glyph glyph-name="Korea1.126" unicode="&#x300e;" horiz-adv-x="729" 
d="M227 1438h348v51h-421v-713h73v662zM668 1575v-223h-349v-662h-258v885h607z" />
    <glyph glyph-name="Korea1.127" unicode="&#x300f;" horiz-adv-x="729" 
d="M154 -256h421v713h-73v-662h-348v-51zM668 543v-885h-607v223h349v662h258z" />
    <glyph glyph-name="Korea1.128" unicode="&#x3010;" horiz-adv-x="765" 
d="M43 -264v1761h719q-230 -153 -368 -387t-138 -496t138 -495t370 -383h-721z" />
    <glyph glyph-name="Korea1.129" unicode="&#x3011;" horiz-adv-x="782" 
d="M731 1497v-1761h-721q233 150 371 383q137 233 137 495t-137 496t-369 387h719z" />
    <glyph glyph-name="Korea1.8700" unicode="&#x3012;" 
 />
    <glyph glyph-name="Korea1.175" unicode="&#x3013;" horiz-adv-x="1863" 
d="M1595 477v-78h-1327v78h1327zM1595 879v-78h-1327v78h1327z" />
    <glyph glyph-name="Korea1.118" unicode="&#x3014;" horiz-adv-x="704" 
d="M205 41l424 -240l-58 -100l-489 272v1287l489 272l58 -100l-424 -238v-1153z" />
    <glyph glyph-name="Korea1.119" unicode="&#x3015;" horiz-adv-x="733" 
d="M514 1194l-424 238l57 100l490 -272v-1287l-490 -272l-57 100l424 240v1153z" />
    <glyph glyph-name="Korea1.8219" unicode="&#x3016;" horiz-adv-x="962" 
 />
    <glyph glyph-name="Korea1.8220" unicode="&#x3017;" horiz-adv-x="962" 
 />
    <glyph glyph-name="Korea1.8221" unicode="&#x3018;" horiz-adv-x="962" 
 />
    <glyph glyph-name="Korea1.8222" unicode="&#x3019;" horiz-adv-x="962" 
 />
    <glyph glyph-name="Korea1.9322" unicode="&#x301e;" 
 />
    <glyph glyph-name="Korea1.9323" unicode="&#x301f;" 
 />
    <glyph glyph-name="Korea1.8671" unicode="&#x3020;" 
 />
    <glyph glyph-name="Korea1.8701" unicode="&#x3036;" 
 />
    <glyph glyph-name="Korea1.851" unicode="&#x3041;" horiz-adv-x="1863" 
d="M1454 201q0 201 -229 286q-163 -289 -351 -471t-339 -182q-113 0 -177 70q-63 70 -63 194t91 236t255 184q0 121 10 258h-291v109h302q4 100 20 239h115q-14 -109 -23 -237q266 2 535 43v-109q-301 -31 -543 -37q-12 -94 -12 -229q147 47 284 47q244 0 387 -105t143 -293
t-151 -306q-111 -88 -299 -123l-51 102q164 33 250 94q137 92 137 230zM813 104q166 166 305 402q-215 10 -360 -57q10 -169 55 -345zM410 108q0 -72 36 -116t95 -41q86 0 182 90q-55 129 -82 369q-41 -20 -95 -66q-136 -114 -136 -236z" />
    <glyph glyph-name="Korea1.852" unicode="&#x3042;" horiz-adv-x="1863" 
d="M262 1047v114h352q10 182 29 289l129 2q-16 -96 -31 -281q350 4 641 29v-115q-231 -18 -651 -30q-6 -102 -6 -289q160 47 340 47q289 0 477 -133q180 -132 180 -362t-184 -373q-133 -105 -362 -146l-58 121q201 37 307 105q166 102 166 301q0 133 -91 226t-224 128
q-109 -342 -399 -610q-225 -213 -437 -213q-131 0 -216 85t-85 250t146 328q127 139 313 213l4 314h-340zM793 147q217 193 356 551q-113 6 -231 -8t-193 -43q5 -297 68 -500zM260 207q0 -221 208 -221q108 0 216 94q-68 159 -82 532q-152 -61 -248 -184q-94 -115 -94 -221z
" />
    <glyph glyph-name="Korea1.853" unicode="&#x3043;" horiz-adv-x="1863" 
d="M324 419q0 249 14 451l131 -12q-16 -178 -16 -390t28 -316q47 -147 119 -148q82 0 186 238l82 -95q-131 -281 -268 -280q-137 0 -213 164q-63 139 -63 388zM1540 106l-127 -47q-55 371 -229 664l116 53q207 -336 240 -670z" />
    <glyph glyph-name="Korea1.854" unicode="&#x3044;" horiz-adv-x="1863" 
d="M193 574q0 320 26 677l143 -14q-31 -283 -30 -662q4 -209 45 -352q55 -174 141 -174q57 1 126 115t110 225l102 -96q-161 -412 -336 -412q-143 0 -233 185q-94 188 -94 508zM1671 186l-149 -39q-20 269 -80 481t-176 445l125 47q253 -447 280 -934z" />
    <glyph glyph-name="Korea1.855" unicode="&#x3045;" horiz-adv-x="1863" 
d="M1206 1049l-43 -109q-219 43 -473 141l64 99q196 -78 452 -131zM1268 352q0 129 -60 197q-63 76 -194 76q-193 0 -508 -105l-37 119q311 104 521 104t307 -102t98 -289q0 -225 -191 -385q-153 -125 -405 -180l-54 115q221 51 349 143q174 125 174 307z" />
    <glyph glyph-name="Korea1.856" unicode="&#x3046;" horiz-adv-x="1863" 
d="M1032 946q473 0 473 -463q0 -293 -205 -487q-188 -183 -550 -238l-66 129q319 51 500 199q184 156 184 397q0 168 -92 250t-246 82q-229 0 -635 -143l-37 141q386 133 674 133zM621 1323l71 121q281 -92 586 -141l-53 -119q-289 41 -604 139z" />
    <glyph glyph-name="Korea1.857" unicode="&#x3047;" horiz-adv-x="1863" 
d="M1188 1053l-47 -103q-252 29 -465 103l51 94q217 -67 461 -94zM1200 -174q-123 0 -167 54t-44 202q0 58 -13 74q-14 16 -66 16t-155 -75t-300 -259l-90 90q371 311 686 690q-285 -45 -576 -49l-6 117q309 4 651 39l82 -96q-203 -250 -319 -375q47 18 108 18q99 0 99 -131
t16 -157q25 -43 102 -43q185 0 289 12v-119q-90 -8 -297 -8z" />
    <glyph glyph-name="Korea1.858" unicode="&#x3048;" horiz-adv-x="1863" 
d="M1380 -164q-154 0 -204 11t-86 42q-82 72 -82 267q0 84 -25 112t-87 28t-120 -38q-58 -37 -164 -139q-119 -121 -305 -299l-96 117q475 412 860 931q-391 -53 -733 -57v131q356 2 842 64l92 -119q-12 -13 -167 -205t-237 -283q58 27 120 27t102 -44t40 -110v-84
q0 -137 45 -179t138 -42q180 1 340 13v-136q-119 -8 -273 -8zM1239 1358l-61 -119q-317 23 -580 100l68 113q270 -74 573 -94z" />
    <glyph glyph-name="Korea1.859" unicode="&#x3049;" horiz-adv-x="1863" 
d="M1053 428q-117 0 -252 -43v-317q0 -109 -53 -185h2q-66 -90 -188 -90.5t-196 71.5t-73.5 198t103.5 236t292 167v262h-334v113h334v268h113v-268q160 0 282 16v-111q-139 -18 -282 -18v-235q127 37 252 36q209 0 329 -94q129 -94 129 -272q0 -145 -73 -238
q-82 -98 -220 -98t-237 55l47 103q106 -40 187 -40t133 64t51 166q0 102 -84 178t-262 76zM545 -98q143 0 143 211v245q-285 -117 -285 -292q0 -68 31 -111q35 -53 111 -53zM1569 684l-84 -70q-84 141 -191 242l80 64q111 -105 195 -236z" />
    <glyph glyph-name="Korea1.860" unicode="&#x304a;" horiz-adv-x="1863" 
d="M1227 -31q149 1 223 87t70 230t-124 224t-281 80t-367 -58v-421q0 -129 -67 -216t-204 -87t-221 88t-84 247.5t117 284.5t334 203v344q-188 -8 -369 -8v120q266 0 369 5v327h125v-325q199 4 368 26v-114q-201 -27 -368 -29v-315q201 51 358 47q248 -4 398 -124t151 -294
q-1 -205 -105 -326t-319 -121q-119 0 -223 39l18 123q115 -37 201 -37zM293 166q0 -108 49 -174t129 -66t116 58t36 149v371q-330 -122 -330 -338zM1692 981l-97 -88q-104 156 -256 276l82 82q154 -110 271 -270z" />
    <glyph glyph-name="Korea1.861" unicode="&#x304b;" horiz-adv-x="1863" 
d="M1724 375l-131 -64q-80 375 -280 725l114 58q209 -334 297 -719zM784 -29q156 0 205 193q31 109 31 389q0 166 -44 260t-150 94t-228 -12q-113 -569 -334 -1020l-123 62q215 414 330 946q-139 -18 -319 -45l-15 127q182 27 352 43q47 313 58 399l129 -10
q-12 -117 -62 -379q115 12 201 12q166 0 246 -104q90 -111 90 -373q0 -350 -59 -506q-84 -207 -301 -207q-109 0 -201 31v131q111 -31 194 -31z" />
    <glyph glyph-name="Korea1.862" unicode="&#x304c;" horiz-adv-x="1863" 
d="M1647 375l-131 -72q-86 391 -283 733l115 58q205 -324 299 -719zM1587 1106l-84 -55q-57 131 -133 221l82 51q76 -88 135 -217zM1774 1200l-86 -53q-49 117 -134 219l84 51q99 -123 136 -217zM778 907q-106 0 -227 -12q-117 -573 -336 -1020l-123 62q213 410 332 946
q-133 -16 -322 -45l-14 127q193 27 352 43q37 221 58 399l129 -10q-16 -158 -62 -379q115 12 201 12q166 0 246 -104q90 -111 90 -373q0 -350 -60 -506q-84 -207 -301 -207q-110 0 -198 31v131q109 -31 192 -31q156 0 205 193q33 117 33 389q1 354 -195 354z" />
    <glyph glyph-name="Korea1.863" unicode="&#x304d;" horiz-adv-x="1863" 
d="M459 125q0 -211 444 -211q166 0 373 27v-119q-156 -23 -411 -23t-384 76q-145 84 -145 250q0 307 506 307q152 0 403 -82q-125 219 -184 348q-403 -53 -782 -67l-7 110q326 8 746 56q-25 62 -107 247q-348 -39 -589 -40l-5 108q242 2 553 31l-110 289l119 32
q80 -221 112 -301q279 29 428 64l19 -105q-170 -35 -404 -57q49 -125 109 -250q223 29 430 70l18 -111q-174 -33 -405 -55q152 -309 213 -418l-88 -74q-246 92 -467 92q-385 0 -385 -194z" />
    <glyph glyph-name="Korea1.864" unicode="&#x304e;" horiz-adv-x="1863" 
d="M342 125q0 -211 444 -211q168 0 373 27v-119q-156 -23 -411 -23t-383 76q-145 84 -146 250q0 307 508 307q150 0 401 -82q-125 219 -184 348q-399 -53 -782 -67l-6 110q326 8 745 56l-106 247q-348 -39 -588 -40l-6 108q242 2 553 31l-111 289l119 32l112 -301
q279 29 429 64l18 -105q-170 -35 -403 -57q49 -125 108 -250q223 29 430 70l19 -111q-174 -33 -406 -55q152 -309 213 -418l-88 -74q-246 92 -467 92q-385 0 -385 -194zM1513 1251l-88 -47q-43 129 -112 234l86 43q69 -97 114 -230zM1708 1329l-88 -45q-41 117 -113 232
l86 43q90 -136 115 -230z" />
    <glyph glyph-name="Korea1.865" unicode="&#x304f;" horiz-adv-x="1863" 
d="M518 632q0 62 68 132q24 23 98 88t125 113q242 219 399 448l115 -98q-172 -225 -410 -434q-93 -81 -159 -143t-66 -103t55 -98q23 -25 83 -82q330 -313 517 -592l-120 -101q-229 338 -418 521q-29 29 -102 99t-113 116q-72 72 -72 134z" />
    <glyph glyph-name="Korea1.866" unicode="&#x3050;" horiz-adv-x="1863" 
d="M604 738q-66 -62 -66 -103t56 -98q23 -25 83 -82q330 -313 517 -592l-121 -101q-229 338 -418 521l-215 215q-72 72 -71 140t106 162q29 26 81 72q327 286 503 541l115 -98q-172 -225 -410 -434q-94 -81 -160 -143zM1296 727l-88 -47q-39 121 -108 235l86 41
q73 -106 110 -229zM1493 803l-90 -45q-41 125 -109 233l88 41q84 -133 111 -229z" />
    <glyph glyph-name="Korea1.867" unicode="&#x3051;" horiz-adv-x="1863" 
d="M147 650q0 338 64 706l127 -10q-66 -340 -66 -710t29 -736h-127q-27 412 -27 750zM1206 850h-620v125h620q0 223 -6 432h125q4 -143 4 -426q115 0 385 20v-122q-219 -20 -385 -21q6 -588 -121 -788q-106 -172 -436 -281l-61 123q299 90 397 250t98 688z" />
    <glyph glyph-name="Korea1.868" unicode="&#x3052;" horiz-adv-x="1863" 
d="M98 639q0 360 62 717l127 -10q-66 -340 -66 -690t29 -756h-127q-25 379 -25 739zM1155 850h-618v125h618q0 293 -6 432h125q6 -143 6 -426q117 0 383 20v-122q-219 -20 -383 -21q6 -582 -121 -788q-111 -174 -438 -281l-62 123q301 90 394 244q102 162 102 694z
M1581 1194l-90 -43q-33 125 -98 240l88 39q63 -101 100 -236zM1765 1262l-94 -41q-35 127 -98 237l90 37q79 -139 102 -233z" />
    <glyph glyph-name="Korea1.869" unicode="&#x3053;" horiz-adv-x="1863" 
d="M936 1241q242 0 491 -29v-127q-299 -150 -475 -266l-80 72q113 82 338 215l-274 6q-182 6 -490 -18v127q248 20 490 20zM924 -135q-328 0 -464 75t-136 244q0 51 28 119q29 68 66 109l98 -58q-29 -31 -48 -80t-19 -84q0 -109 126 -157q99 -39 401 -39t564 49v-135
q-288 -43 -616 -43z" />
    <glyph glyph-name="Korea1.870" unicode="&#x3054;" horiz-adv-x="1863" 
d="M784 1241q242 0 492 -29v-127q-299 -150 -475 -266l-80 72q113 82 338 215l-273 6q-182 6 -491 -18v127q247 20 489 20zM773 -135q-329 0 -465 75t-136 244q0 51 29 120t67 108l97 -58q-29 -31 -49 -80t-19 -84q0 -109 127 -157q100 -39 400 -39t567 49v-135
q-289 -43 -618 -43zM1503 1202l-86 -51q-39 109 -123 227l84 47q82 -106 125 -223zM1692 1290l-86 -49q-45 117 -125 225l86 47q96 -137 125 -223z" />
    <glyph glyph-name="Korea1.871" unicode="&#x3055;" horiz-adv-x="1863" 
d="M776 406q-160 0 -268 -58q-117 -59 -117 -165t119 -167q110 -61 360 -61t422 25v-123q-192 -27 -472 -27t-420 95t-140 260t137 249q141 90 361 90t475 -108q-139 283 -238 504q-459 -35 -589 -35h-152v123h145q139 0 547 26q-86 229 -135 369l127 41q84 -250 139 -391
q301 27 508 73l23 -120q-223 -47 -484 -70q98 -225 289 -612l-84 -70q-281 152 -553 152z" />
    <glyph glyph-name="Korea1.872" unicode="&#x3056;" horiz-adv-x="1863" 
d="M763 -45q251 0 421 25v-123q-188 -27 -470 -27t-425 98q-137 90 -137 255t139 253t359 88t474 -108q-201 422 -235 504q-463 -35 -590 -35h-154v123h146q137 0 549 26q-61 152 -138 369l127 41q84 -250 140 -391q303 27 508 73l22 -120q-217 -47 -481 -70
q90 -213 287 -612l-84 -70q-281 152 -553 152q-158 0 -272 -58t-114 -164t119 -168q111 -61 362 -61zM1524 1255l-88 -47q-39 119 -111 236l86 41q70 -101 113 -230zM1716 1333l-90 -45q-37 121 -110 232l88 43q87 -138 112 -230z" />
    <glyph glyph-name="Korea1.873" unicode="&#x3057;" horiz-adv-x="1863" 
d="M352 250v1155h131v-1124q0 -176 97 -269q82 -82 229 -82q188 0 358 156q131 119 242 322l100 -89q-291 -512 -700 -512q-203 0 -330 110t-127 333z" />
    <glyph glyph-name="Korea1.874" unicode="&#x3058;" horiz-adv-x="1863" 
d="M352 250v1155h131v-1124q0 -176 97 -269q82 -82 229 -82q188 0 358 156q131 119 242 322l100 -89q-291 -512 -700 -512q-203 0 -330 110t-127 333zM1194 1026l-88 -47q-41 123 -111 233l86 43q68 -96 113 -229zM1391 1106l-91 -45q-39 125 -110 231l88 41
q90 -139 113 -227z" />
    <glyph glyph-name="Korea1.875" unicode="&#x3059;" horiz-adv-x="1863" 
d="M1063 1024v-354q41 -78 41 -264q0 -301 -172 -455q-131 -119 -361 -176l-77 116q176 41 294 115q72 43 123 120t64 175q-74 -104 -213 -104t-218 95t-79 221t88 221t208 95t179 -55v246q-444 -25 -807 -55l-6 122q373 31 813 48v292h123v-286q353 0 672 -6v-117
q-221 6 -672 6zM938 513q0 87 -47 145t-122 58t-124 -59t-49 -145t47 -140t125 -54t124 54t46 141z" />
    <glyph glyph-name="Korea1.876" unicode="&#x305a;" horiz-adv-x="1863" 
d="M1030 1024v-354q41 -78 41 -264q0 -301 -172 -455q-131 -119 -360 -176l-78 116q176 41 295 115q72 43 123 120t63 175q-74 -104 -213 -104t-218 95t-79 221t88 221t208 95t179 -55v246q-444 -25 -807 -55l-6 122q373 31 813 48v292h123v-286q353 0 672 -6v-117
q-221 6 -672 6zM905 513q0 87 -47 145t-122 58t-124 -59t-49 -145t47 -140t125 -54t124 54t46 141zM1569 1274l-90 -41q-37 135 -97 240l88 36q62 -102 99 -235zM1767 1337l-94 -39q-25 115 -94 238l90 37q75 -138 98 -236z" />
    <glyph glyph-name="Korea1.877" unicode="&#x305b;" horiz-adv-x="1863" 
d="M1056 -154q-340 0 -446 76q-104 76 -104 260v572q-350 -49 -383 -54v131q184 27 383 50v469h123v-455q295 33 635 55q0 258 -11 441h125q10 -193 11 -430q268 10 350 12v-131q-152 0 -350 -11q0 -299 -46 -405q-55 -139 -233 -139q-43 0 -131 10v121q82 -14 123 -15
q109 0 141 127q20 74 21 293q-340 -23 -635 -55v-549q0 -156 102 -203q85 -39 365 -39t495 37v-137q-195 -31 -535 -31z" />
    <glyph glyph-name="Korea1.878" unicode="&#x305c;" horiz-adv-x="1863" 
d="M984 -154q-340 0 -446 76t-106 260v572q-350 -49 -383 -54v131q184 27 383 50v469h123v-455q295 33 635 55q0 258 -10 441h125q10 -193 10 -430q279 10 350 12v-131q-152 0 -350 -11q0 -299 -45 -405q-55 -139 -234 -139q-43 0 -131 10v121q82 -14 123 -15q106 0 143 127
q18 76 19 293q-340 -23 -635 -55v-549q0 -158 104 -203q82 -39 363 -39t496 37v-137q-194 -31 -534 -31zM1616 1124l-92 -41q-33 139 -97 242l91 37q61 -105 98 -238zM1812 1190l-92 -39q-31 123 -94 238l90 36q78 -145 96 -235z" />
    <glyph glyph-name="Korea1.879" unicode="&#x305d;" horiz-adv-x="1863" 
d="M700 176q0 102 74 203q39 51 118 113t173 106q-371 -37 -840 -123l-18 109q545 240 1012 641q-334 -39 -789 -54v123q432 2 918 54l79 -117q-406 -350 -794 -567q381 61 1022 94v-119q-315 -8 -567 -150t-252 -313q0 -136 109 -194t243 -58t260 15v-123
q-129 -14 -236 -15q-219 0 -354 86q-158 100 -158 289z" />
    <glyph glyph-name="Korea1.880" unicode="&#x305e;" horiz-adv-x="1863" 
d="M762 176q0 -135 121 -201q98 -51 233 -51t260 15v-123q-133 -14 -237 -15q-217 0 -364 93t-146 282q0 102 73 203q35 49 115 113t176 106q-379 -37 -839 -123l-19 109q541 240 1012 641q-338 -39 -791 -54v123q434 2 918 54l80 -117q-399 -346 -793 -567q381 61 1022 94
v-119q-317 -8 -559 -145q-262 -145 -262 -318zM1532 870l-90 -45q-39 125 -107 238l88 39q62 -95 109 -232zM1726 942l-92 -43q-31 119 -104 236l88 39q83 -138 108 -232z" />
    <glyph glyph-name="Korea1.881" unicode="&#x305f;" horiz-adv-x="1863" 
d="M199 950v123h370q43 207 64 367l125 -15q-18 -127 -70 -354q311 8 549 43v-121q-252 -33 -571 -45q-135 -641 -371 -1151l-123 60q238 522 367 1093h-340zM1262 737q100 0 342 -8v-121q-368 28 -646 -8v117q204 20 304 20zM1250 -193.5q-266 -0.5 -369 69.5t-103 220
q0 59 25 117l104 -4q-14 -51 -14 -107t29 -96t77 -55q72 -29 278 -29t413 27v-117q-174 -25 -440 -25.5z" />
    <glyph glyph-name="Korea1.882" unicode="&#x3060;" horiz-adv-x="1863" 
d="M160 950v123h370q43 207 64 367l125 -15q-18 -127 -70 -354q311 8 549 43v-121q-252 -33 -571 -45q-135 -641 -371 -1151l-123 60q240 516 369 1093h-342zM1225 737q100 0 342 -8v-121q-372 28 -647 -8v117q205 20 305 20zM854 102q0 -56 29 -96t78 -55q75 -29 279 -29
t411 27v-117q-177 -26 -441 -26t-367 70t-104 220q0 59 25 117l104 -4q-14 -51 -14 -107zM1538 1137l-86 -52q-47 115 -125 228l84 47q74 -98 127 -223zM1731 1231l-89 -51q-41 115 -122 225l84 45q94 -129 127 -219z" />
    <glyph glyph-name="Korea1.883" unicode="&#x3061;" horiz-adv-x="1863" 
d="M1501 266q0 113 -84 185q-84 66 -223 65q-289 0 -680 -280l-90 55q117 324 201 680q-313 -12 -394 -13v117q178 0 418 10q35 145 70 349l131 -13q-14 -96 -72 -331q287 14 606 49v-115q-293 -31 -628 -49q-53 -233 -154 -555q322 217 590 217q211 0 325 -100t113 -267
q0 -272 -248 -389q-209 -100 -606 -102l-47 143q365 6 545 74q227 84 227 270z" />
    <glyph glyph-name="Korea1.884" unicode="&#x3062;" horiz-adv-x="1863" 
d="M1411 266q0 115 -83 183t-222 67q-289 0 -680 -280l-90 55q119 332 199 680q-307 -12 -392 -13v117q178 0 418 10q35 145 70 349l131 -13q-27 -147 -74 -331q289 14 606 49v-115q-289 -31 -628 -49q-47 -225 -152 -555q322 217 590 217q212 0 324 -100t112 -267
q0 -270 -246 -389q-209 -98 -608 -102l-45 143q365 6 545 74q225 82 225 270zM1522 1204l-86 -49q-43 125 -119 231l86 46q70 -95 119 -228zM1718 1292l-90 -49q-39 119 -117 230l86 45q88 -124 121 -226z" />
    <glyph glyph-name="Korea1.885" unicode="&#x3063;" horiz-adv-x="1863" 
d="M1436 422q0 117 -99 203q-102 86 -264 86q-313 0 -751 -136l-21 125q426 127 772 127q240 0 373 -120q117 -109 117 -289q0 -264 -242 -402q-211 -116 -608 -141l-54 129q352 23 541 107q236 104 236 311z" />
    <glyph glyph-name="Korea1.886" unicode="&#x3064;" horiz-adv-x="1863" 
d="M1116 1202q301 0 459 -158q137 -137 137 -358q0 -608 -1089 -690l-48 133q469 43 703 160q285 137 285 397q0 174 -113 279q-116 103 -344 103t-490 -72t-448 -152l-18 145q552 213 966 213z" />
    <glyph glyph-name="Korea1.887" unicode="&#x3065;" horiz-adv-x="1863" 
d="M1044 1147q297 0 459 -158q137 -137 137 -356q0 -332 -317 -504q-285 -151 -774 -188l-47 133q467 43 704 159q285 137 285 400q0 172 -116 277q-221 200 -869 22q-205 -55 -410 -144l-20 146q549 213 968 213zM1597 1190l-84 -53q-59 131 -131 223l84 49
q70 -84 131 -219zM1788 1286l-88 -53q-41 117 -127 223l84 47q98 -125 131 -217z" />
    <glyph glyph-name="Korea1.888" unicode="&#x3066;" horiz-adv-x="1863" 
d="M1307 -143q-301 0 -482 141q-203 160 -202 440q0 216 129 394t364 305q-459 -27 -934 -103l-6 135q678 100 1510 101l-9 -123q-63 4 -157 4q-250 0 -505 -213t-255 -502q0 -221 168 -342q150 -111 401 -110h156l-6 -127h-172z" />
    <glyph glyph-name="Korea1.889" unicode="&#x3067;" horiz-adv-x="1863" 
d="M1307 -143q-301 0 -482 141q-203 160 -202 440q0 216 129 394t364 305q-459 -27 -934 -103l-6 135q678 100 1510 101l-9 -123q-63 4 -157 4q-250 0 -505 -213t-255 -502q0 -221 168 -342q150 -111 401 -110h156l-6 -127h-172zM1485 645l-88 -47q-43 129 -113 233l86 43
q70 -96 115 -229zM1681 725l-90 -47q-39 119 -112 231l88 43q87 -137 114 -227z" />
    <glyph glyph-name="Korea1.890" unicode="&#x3068;" horiz-adv-x="1863" 
d="M307 176q0 141 119 273q90 96 276 215q-125 295 -131 706l136 10q6 -371 104 -663q270 139 616 250l50 -121q-401 -115 -676 -268q-360 -197 -361 -392q0 -154 156 -215q131 -47 401 -47t553 43l6 -123q-260 -35 -546 -34q-373 0 -535 84q-168 84 -168 282z" />
    <glyph glyph-name="Korea1.891" unicode="&#x3069;" horiz-adv-x="1863" 
d="M166 176q0 141 119 273q90 96 276 215q-125 295 -131 706l135 10q6 -371 105 -663q276 141 616 250l49 -121q-401 -115 -676 -268q-360 -197 -360 -392q0 -154 156 -215q131 -47 401 -47t553 43l6 -123q-261 -34 -589 -34t-494 84t-166 282zM1507 1049l-86 -52
q-53 131 -123 228l84 47q70 -86 125 -223zM1698 1135l-88 -50q-39 109 -121 228l86 45q96 -135 123 -223z" />
    <glyph glyph-name="Korea1.892" unicode="&#x306a;" horiz-adv-x="1863" 
d="M125 963v116q135 0 371 11q53 184 90 340l127 -21q-23 -106 -88 -313q221 8 432 43v-119q-201 -31 -465 -43q-121 -465 -354 -907l-115 77q221 418 346 826q-252 -10 -344 -10zM1741 766l-80 -94q-147 184 -313 325l79 82q183 -145 314 -313zM1157 737h123v-540
q225 -103 395 -240l-71 -100q-131 113 -330 217q-45 -301 -369 -301q-150 1 -245 65t-95 197q-1 133 97 197t239 65q84 0 256 -53v493zM914 195q-102 0 -168 -40t-66 -116q0 -166 225 -166q119 1 183 65t65 179q-137 78 -239 78z" />
    <glyph glyph-name="Korea1.893" unicode="&#x306b;" horiz-adv-x="1863" 
d="M317 566q0 -424 17 -713q-129 -14 -133 -15q-15 332 -15 732t84 796l129 -6q-82 -370 -82 -794zM1366 1208q106 0 229 -10v-117q-213 -94 -411 -288l-111 51q45 51 70 77q78 81 213 171q-309 0 -651 -60l-7 117q301 59 668 59zM647 227q0 78 47 185l115 -23
q-37 -76 -37 -162q0 -135 125 -182q94 -37 302 -37t470 35l6 -123q-248 -27 -454 -26q-293 0 -422 67q-152 76 -152 266z" />
    <glyph glyph-name="Korea1.894" unicode="&#x306c;" horiz-adv-x="1863" 
d="M940 35q0 65 31 115t78 72q89 42 188 42t276 -98q49 111 49 292t-113 312q-114 131 -347 160q-131 -481 -327 -769t-382 -288q-123 0 -211 100q-104 121 -104 330q0 129 76 283t223 264q-33 207 -49 420l118 30q6 -117 35 -391q240 147 531 144q45 221 59 319l133 -35
q-14 -72 -74 -288q301 -53 431 -213q121 -154 120 -390q4 -197 -61 -340q98 -71 164 -137l-74 -92q-59 61 -147 125q-141 -193 -338 -192q-129 0 -207 61t-78 164zM1047 39q0 -131 174 -131q147 -1 243 155q-111 102 -243 103q-72 0 -123 -32t-51 -95zM694 236
q182 317 287 702q-258 -2 -473 -147q41 -266 186 -555zM197 278q0 -126 51 -202t143 -76q127 0 232 145q-78 131 -136 293q-57 162 -84 281q-92 -80 -149 -197.5t-57 -243.5z" />
    </font>
</defs>
</svg>
